<?xml version="1.0" standalone="no"?>
<!DOCTYPE svg PUBLIC "-//W3C//DTD SVG 1.1//EN" "http://www.w3.org/Graphics/SVG/1.1/DTD/svg11.dtd" >
<svg xmlns="http://www.w3.org/2000/svg">
<metadata>Generated by IcoMoon</metadata>
<defs>
<font id="isax" horiz-adv-x="1024">
<font-face units-per-em="1024" ascent="960" descent="-64" />
<missing-glyph horiz-adv-x="1024" />
<glyph unicode="&#x20;" horiz-adv-x="512" d="" />
<glyph unicode="&#xe900;" glyph-name="aave" d="M682.658 224.005c-12.373 0-23.893 7.253-29.44 19.2l-141.227 317.866-141.225-318.292c-7.253-16.213-26.453-23.467-42.24-16.213-16.213 7.253-23.467 26.027-16.213 42.24l170.665 383.999c10.24 23.040 48.213 23.040 58.453 0l170.667-383.999c7.253-16.213 0-34.987-16.213-42.24-4.267-1.707-8.96-2.56-13.227-2.56zM512 394.667h-170.667c-17.493 0-32 14.507-32 32s14.507 32 32 32h170.667c17.493 0 32-14.507 32-32s-14.507-32-32-32zM512-32c-253.013 0-458.667 205.653-458.667 458.667s205.653 458.667 458.667 458.667c253.013 0 458.667-205.653 458.667-458.667s-205.653-458.667-458.667-458.667zM512 821.334c-217.6 0-394.667-177.067-394.667-394.667s177.067-394.667 394.667-394.667c217.6 0 394.667 177.067 394.667 394.667s-177.067 394.667-394.667 394.667z" />
<glyph unicode="&#xe901;" glyph-name="activity" d="M640-32h-256c-231.68 0-330.667 98.987-330.667 330.667v256c0 231.68 98.987 330.667 330.667 330.667h256c231.68 0 330.667-98.987 330.667-330.667v-256c0-231.68-98.987-330.667-330.667-330.667zM384 821.334c-196.693 0-266.667-69.973-266.667-266.667v-256c0-196.693 69.973-266.667 266.667-266.667h256c196.693 0 266.667 69.973 266.667 266.667v256c0 196.693-69.973 266.667-266.667 266.667h-256zM312.751 288.427c-6.827 0-13.653 2.133-19.627 6.827-14.080 10.667-16.64 30.72-5.973 44.8l101.547 131.84c12.373 15.787 29.867 26.027 49.92 28.587 19.627 2.56 39.68-2.987 55.467-15.36l78.080-61.44c2.987-2.56 5.973-2.56 8.107-2.133 1.707 0 4.693 0.853 7.253 4.267l98.56 127.146c10.667 14.080 31.147 16.64 44.8 5.547 14.080-10.667 16.64-30.72 5.547-44.8l-98.56-127.146c-12.373-15.787-29.867-26.027-49.92-28.16-20.053-2.56-39.68 2.987-55.467 15.36l-78.080 61.44c-2.987 2.56-6.4 2.56-8.107 2.133-1.707 0-4.693-0.853-7.253-4.267l-101.546-131.84c-5.547-8.533-14.933-12.8-24.747-12.8z" />
<glyph unicode="&#xe902;" glyph-name="ada" d="M586.667 490.667c-35.413 0-64 28.587-64 64s28.587 64 64 64c35.413 0 64-28.587 64-64s-28.587-64-64-64zM586.667 576c-11.947 0-21.333-9.387-21.333-21.333s9.387-21.333 21.333-21.333c11.947 0 21.333 9.387 21.333 21.333s-9.387 21.333-21.333 21.333zM437.333 490.667c-35.413 0-64 28.587-64 64s28.587 64 64 64c35.413 0 64-28.587 64-64s-28.587-64-64-64zM437.333 576c-11.947 0-21.333-9.387-21.333-21.333s9.387-21.333 21.333-21.333c11.947 0 21.333 9.387 21.333 21.333s-9.387 21.333-21.333 21.333zM661.333 362.667c-35.413 0-64 28.587-64 64s28.587 64 64 64c35.413 0 64-28.587 64-64s-28.587-64-64-64zM661.333 448c-11.947 0-21.333-9.387-21.333-21.333s9.387-21.333 21.333-21.333c11.947 0 21.333 9.387 21.333 21.333s-9.387 21.333-21.333 21.333zM731.75 501.334c-29.44 0-53.333 23.893-53.333 53.333s23.893 53.333 53.333 53.333c29.44 0 53.333-23.893 53.333-53.333s-23.893-53.333-53.333-53.333zM731.75 565.334c-5.973 0-10.667-4.693-10.667-10.667 0-11.947 21.333-11.947 21.333 0 0 5.973-4.693 10.667-10.667 10.667zM731.75 245.334c-29.44 0-53.333 23.893-53.333 53.333s23.893 53.333 53.333 53.333c29.44 0 53.333-23.893 53.333-53.333s-23.893-53.333-53.333-53.333zM731.75 309.334c-5.973 0-10.667-4.693-10.667-10.667 0-11.947 21.333-11.947 21.333 0 0 5.973-4.693 10.667-10.667 10.667zM842.667 373.334c-29.44 0-53.333 23.893-53.333 53.333s23.893 53.333 53.333 53.333c29.44 0 53.333-23.893 53.333-53.333s-23.893-53.333-53.333-53.333zM842.667 437.334c-5.973 0-10.667-4.693-10.667-10.667 0-11.947 21.333-11.947 21.333 0 0 5.973-4.693 10.667-10.667 10.667zM290.125 501.334c-29.44 0-53.333 23.893-53.333 53.333s23.893 53.333 53.333 53.333c29.44 0 53.333-23.893 53.333-53.333s-23.893-53.333-53.333-53.333zM290.125 565.334c-5.973 0-10.667-4.693-10.667-10.667 0-11.947 21.333-11.947 21.333 0 0 5.973-4.693 10.667-10.667 10.667zM290.125 245.334c-29.44 0-53.333 23.893-53.333 53.333s23.893 53.333 53.333 53.333c29.44 0 53.333-23.893 53.333-53.333s-23.893-53.333-53.333-53.333zM290.125 309.334c-5.973 0-10.667-4.693-10.667-10.667 0-11.947 21.333-11.947 21.333 0 0 5.973-4.693 10.667-10.667 10.667zM179.209 373.334c-29.44 0-53.333 23.893-53.333 53.333s23.893 53.333 53.333 53.333c29.44 0 53.333-23.893 53.333-53.333s-23.893-53.333-53.333-53.333zM179.209 437.334c-5.973 0-10.667-4.693-10.667-10.667 0-11.947 21.333-11.947 21.333 0 0 5.973-4.693 10.667-10.667 10.667zM678.417 663.458c-29.44 0-53.333 23.893-53.333 53.333s23.893 53.333 53.333 53.333c29.44 0 53.333-23.893 53.333-53.333s-23.893-53.333-53.333-53.333zM678.417 727.458c-5.973 0-10.667-4.693-10.667-10.667 0-11.947 21.333-11.947 21.333 0 0 5.973-4.693 10.667-10.667 10.667zM345.583 663.458c-29.44 0-53.333 23.893-53.333 53.333s23.893 53.333 53.333 53.333c29.44 0 53.333-23.893 53.333-53.333s-23.893-53.333-53.333-53.333zM345.583 727.458c-5.973 0-10.667-4.693-10.667-10.667 0-11.947 21.333-11.947 21.333 0 0 5.973-4.693 10.667-10.667 10.667zM514.125 629.334c-29.44 0-53.333 23.893-53.333 53.333s23.893 53.333 53.333 53.333c29.44 0 53.333-23.893 53.333-53.333s-23.893-53.333-53.333-53.333zM514.125 693.334c-5.973 0-10.667-4.693-10.667-10.667 0-11.947 21.333-11.947 21.333 0 0 5.973-4.693 10.667-10.667 10.667zM678.417 74.667c-29.44 0-53.333 23.893-53.333 53.333s23.893 53.333 53.333 53.333c29.44 0 53.333-23.893 53.333-53.333s-23.893-53.333-53.333-53.333zM678.417 138.667c-5.973 0-10.667-4.693-10.667-10.667 0-11.947 21.333-11.947 21.333 0 0 5.973-4.693 10.667-10.667 10.667zM345.583 74.667c-29.44 0-53.333 23.893-53.333 53.333s23.893 53.333 53.333 53.333c29.44 0 53.333-23.893 53.333-53.333s-23.893-53.333-53.333-53.333zM345.583 138.667c-5.973 0-10.667-4.693-10.667-10.667 0-11.947 21.333-11.947 21.333 0 0 5.973-4.693 10.667-10.667 10.667zM514.125 108.792c-29.44 0-53.333 23.893-53.333 53.333s23.893 53.333 53.333 53.333c29.44 0 53.333-23.893 53.333-53.333s-23.893-53.333-53.333-53.333zM514.125 172.792c-5.973 0-10.667-4.693-10.667-10.667 0-11.947 21.333-11.947 21.333 0 0 5.973-4.693 10.667-10.667 10.667zM362.667 362.667c-35.413 0-64 28.587-64 64s28.587 64 64 64c35.413 0 64-28.587 64-64s-28.587-64-64-64zM362.667 448c-11.947 0-21.333-9.387-21.333-21.333s9.387-21.333 21.333-21.333c11.947 0 21.333 9.387 21.333 21.333s-9.387 21.333-21.333 21.333zM437.333 234.667c-35.413 0-64 28.587-64 64s28.587 64 64 64c35.413 0 64-28.587 64-64s-28.587-64-64-64zM437.333 320c-11.947 0-21.333-9.387-21.333-21.333s9.387-21.333 21.333-21.333c11.947 0 21.333 9.387 21.333 21.333s-9.387 21.333-21.333 21.333zM586.667 234.667c-35.413 0-64 28.587-64 64s28.587 64 64 64c35.413 0 64-28.587 64-64s-28.587-64-64-64zM586.667 320c-11.947 0-21.333-9.387-21.333-21.333s9.387-21.333 21.333-21.333c11.947 0 21.333 9.387 21.333 21.333s-9.387 21.333-21.333 21.333zM512.009 791.458c-23.893 0-43.093 19.2-43.093 42.667s19.2 42.667 42.667 42.667c23.467 0 42.667-19.2 42.667-42.667s-18.347-42.667-42.24-42.667zM736.009 785.063c-17.92 0-32.427 14.507-32.427 32s14.507 32 32 32c17.493 0 32.427-14.507 32.427-32s-14.080-32-32-32zM288 785.063c-17.493 0-32 14.507-32 32s14.080 32 32 32h0.427c17.493 0 32-14.507 32-32s-14.507-32-32.427-32zM512.009-21.333c-23.893 0-43.093 19.2-43.093 42.667s19.2 42.667 42.667 42.667c23.467 0 42.667-19.2 42.667-42.667s-18.347-42.667-42.24-42.667zM736.009 6.396c-17.92 0-32.427 14.507-32.427 32s14.507 32 32 32c17.493 0 32.427-14.507 32.427-32s-14.080-32-32-32zM288 6.396c-17.493 0-32 14.507-32 32s14.080 32 32 32h0.427c17.493 0 32-14.507 32-32s-14.507-32-32.427-32zM66.125 384c-23.466 0-42.666 18.773-42.666 42.667 0 23.467 19.2 42.667 42.666 42.667s42.667-19.2 42.667-42.667c0-23.467-19.2-42.667-42.667-42.667zM160 181.325c-17.493 0-32 14.080-32 32v0.427c0 17.493 14.507 32 32 32s32-14.507 32-32c0-17.493-14.507-32.427-32-32.427zM160 607.583c-17.493 0-32 14.507-32 32s14.507 32 32 32c17.493 0 32-14.080 32-31.573v-0.427c0-17.493-14.507-32-32-32zM960 384c-23.467 0-42.667 18.773-42.667 42.667 0 23.467 19.2 42.667 42.667 42.667s42.667-19.2 42.667-42.667c0-23.467-19.2-42.667-42.667-42.667zM866.125 181.325c-17.493 0-32 14.080-32 32v0.427c0 17.493 14.507 32 32 32s32-14.507 32-32c0-17.493-14.507-32.427-32-32.427zM866.125 607.583c-17.493 0-32 14.507-32 32s14.507 32 32 32c17.493 0 32-14.080 32-32v-0.427c0-17.067-14.507-31.573-32-31.573z" />
<glyph unicode="&#xe903;" glyph-name="add" d="M768 394.667h-512c-17.493 0-32 14.507-32 32s14.507 32 32 32h512c17.493 0 32-14.507 32-32s-14.507-32-32-32zM512 138.667c-17.493 0-32 14.507-32 32v512c0 17.493 14.507 32 32 32s32-14.507 32-32v-512c0-17.493-14.507-32-32-32z" />
<glyph unicode="&#xe904;" glyph-name="add-circle" d="M512-32c-253.013 0-458.667 205.653-458.667 458.667s205.653 458.667 458.667 458.667c253.013 0 458.667-205.653 458.667-458.667s-205.653-458.667-458.667-458.667zM512 821.334c-217.6 0-394.667-177.067-394.667-394.667s177.067-394.667 394.667-394.667c217.6 0 394.667 177.067 394.667 394.667s-177.067 394.667-394.667 394.667zM682.667 394.667h-341.333c-17.493 0-32 14.507-32 32s14.507 32 32 32h341.333c17.493 0 32-14.507 32-32s-14.507-32-32-32zM512 224c-17.493 0-32 14.507-32 32v341.333c0 17.493 14.507 32 32 32s32-14.507 32-32v-341.333c0-17.493-14.507-32-32-32z" />
<glyph unicode="&#xe905;" glyph-name="additem" d="M341.333 224h-109.653c-114.773 0-178.347 63.147-178.347 178.347v304.64c0 114.773 63.147 178.347 178.347 178.347h194.987c114.773 0 178.347-63.147 178.347-178.347 0-17.493-14.507-32-32-32s-32 14.507-32 32c0 80.213-34.133 114.347-114.347 114.347h-194.987c-80.213 0-114.347-34.133-114.347-114.347v-304.64c0-80.213 34.133-114.347 114.347-114.347h109.653c17.493 0 32-14.507 32-32s-14.507-32-32-32zM792.333-32h-194.987c-114.773 0-178.346 63.147-178.346 178.347v304.64c0 114.773 63.146 178.347 178.346 178.347h194.987c114.773 0 178.347-63.147 178.347-178.347v-304.64c0-115.2-63.147-178.347-178.347-178.347zM597.346 565.334c-80.213 0-114.347-34.133-114.347-114.347v-304.64c0-80.213 34.133-114.347 114.347-114.347h194.987c80.213 0 114.347 34.133 114.347 114.347v304.64c0 80.213-34.133 114.347-114.347 114.347h-194.987zM773.585 266.667h-138.667c-17.493 0-32 14.507-32 32s14.507 32 32 32h138.667c17.493 0 32-14.507 32-32s-14.507-32-32-32zM704 197.125c-17.493 0-32 14.507-32 32v138.667c0 17.493 14.507 32 32 32s32-14.507 32-32v-138.667c0-17.493-14.507-32-32-32z" />
<glyph unicode="&#xe906;" glyph-name="add-square" d="M682.667 394.667h-341.333c-17.493 0-32 14.507-32 32s14.507 32 32 32h341.333c17.493 0 32-14.507 32-32s-14.507-32-32-32zM512 224c-17.493 0-32 14.507-32 32v341.333c0 17.493 14.507 32 32 32s32-14.507 32-32v-341.333c0-17.493-14.507-32-32-32zM640-32h-256c-231.68 0-330.667 98.987-330.667 330.667v256c0 231.68 98.987 330.667 330.667 330.667h256c231.68 0 330.667-98.987 330.667-330.667v-256c0-231.68-98.987-330.667-330.667-330.667zM384 821.334c-196.693 0-266.667-69.973-266.667-266.667v-256c0-196.693 69.973-266.667 266.667-266.667h256c196.693 0 266.667 69.973 266.667 266.667v256c0 196.693-69.973 266.667-266.667 266.667h-256z" />
<glyph unicode="&#xe907;" glyph-name="airdrop" d="M511.979 352.427c-33.28 0-64.853 12.8-89.175 36.693-31.147 31.147-43.52 75.947-33.28 119.893 10.667 44.8 46.508 80.64 91.308 91.307 43.52 10.667 88.32-1.708 119.893-33.281s43.52-75.946 33.28-119.892c-10.667-44.8-46.507-80.64-91.307-91.307-10.24-2.133-20.48-3.413-30.72-3.413zM511.979 540.159c-5.12 0-10.667-0.852-15.787-2.132-21.333-5.12-38.827-22.612-43.947-43.946-5.547-22.187 0.427-43.947 16.213-59.307 15.787-15.787 37.12-21.333 59.733-16.213 21.333 5.12 38.827 22.613 43.947 43.947 5.547 22.187-0.427 43.947-16.213 59.306-11.947 11.947-27.307 18.346-43.947 18.346zM256.852 171.947c-7.68 0-15.787 2.987-21.76 8.533-82.773 76.8-130.133 185.173-130.133 297.813 0 224.428 182.613 407.040 407.042 407.040 224.427 0 407.036-182.612 407.036-407.040 0-113.493-45.649-218.453-128.422-296.533-12.8-11.947-33.28-11.52-45.227 1.28s-11.52 33.28 1.28 45.227c69.973 65.707 108.369 154.027 108.369 249.6 0 189.014-154.022 343.040-343.036 343.040s-343.042-154.026-343.042-343.040c0-96.427 38.826-185.173 109.653-250.88 12.8-11.947 13.654-32.427 1.707-45.227-6.4-6.4-14.933-9.813-23.467-9.813zM682.645 285.867c-7.68 0-15.787 2.987-21.76 8.533-12.8 11.947-13.653 32.427-1.28 45.227 35.413 37.547 55.040 87.040 55.040 138.24 0 111.785-90.88 202.237-202.24 202.237s-202.239-90.88-202.239-202.237c0-51.627 19.626-100.693 55.040-138.24 11.947-12.8 11.52-33.28-1.28-45.227s-33.28-11.524-45.227 1.276c-46.507 49.493-72.533 114.351-72.533 182.191 0 146.771 119.466 266.237 266.239 266.237s266.24-119.466 266.24-266.237c0-67.84-25.6-132.698-72.533-182.191-6.4-6.4-14.933-9.809-23.467-9.809zM573.427-32.004h-122.453c-48.64 0-91.734 27.307-112.641 70.827s-15.36 94.293 14.933 132.267l61.44 76.373c23.894 29.867 59.307 46.933 97.707 46.933s73.813-17.067 97.707-46.933l61.44-76.373c30.293-37.973 36.267-88.747 14.933-132.267-21.76-43.52-64.853-70.827-113.067-70.827zM464.201 207.783l-61.44-76.373c-14.933-18.773-17.92-43.093-7.253-64.427 10.24-21.76 31.146-34.56 55.040-34.56h122.453c23.893 0 44.8 12.8 55.040 34.56s7.68 45.653-7.253 64.427l-61.44 76.373c-23.040 29.013-71.68 29.013-95.147 0z" />
<glyph unicode="&#xe908;" glyph-name="airplane" d="M366.090-23.471c-9.387 0-19.2 1.707-28.16 5.547-20.053 8.533-35.413 25.173-42.24 46.080l-18.773 56.32c-8.533 25.6-0.853 57.6 17.92 76.8l96.853 97.28c1.28 1.28 2.987 5.973 2.987 8.107v105.387l-194.56-84.053c-26.027-11.093-52.48-9.813-72.533 3.413s-32 37.12-32 64.853v55.040c0 41.813 29.867 86.613 67.84 101.548l230.827 99.84v121.173c0 51.627 36.265 110.933 82.345 134.827 22.187 11.093 47.787 11.093 69.547 0 46.507-23.893 82.773-82.773 82.773-134.4v-121.173l232.107-99.84c37.973-16.215 66.987-59.735 66.987-101.975v-55.040c0-28.16-11.52-51.627-32-64.853s-46.507-14.507-72.533-3.84l-194.56 84.053v-105.387c0-1.707 1.707-5.973 2.987-7.253l97.28-97.707c18.773-18.773 26.453-51.627 17.92-76.8l-18.773-56.32c-7.253-20.907-22.613-37.547-43.093-45.653-20.053-8.107-42.24-7.253-61.44 2.133-2.133 1.28-4.267 2.56-6.4 4.267l-99.413 83.627c-3.413 2.987-10.24 2.56-13.227 0l-99.412-83.627c-1.707-1.707-3.84-2.987-5.973-3.84-10.24-5.973-21.76-8.533-33.28-8.533zM407.904 442.023c9.813 0 19.198-2.56 27.305-8.107 14.933-9.813 23.467-26.453 23.467-46.080v-121.6c0-18.347-8.96-40.107-21.76-52.907l-96.852-97.28c-1.707-2.133-3.413-8.533-2.56-11.093l18.773-56.747c1.28-4.267 4.267-5.973 5.973-6.827 1.28-0.427 3.413-1.28 5.973-0.427l95.572 80.64c26.88 23.040 69.12 23.040 96 0l95.147-80.213c2.987-0.427 5.12 0 6.4 0.427 1.707 0.853 5.12 2.56 6.4 6.827l18.773 56.32c0.853 2.987-0.853 9.387-2.56 11.093l-96.853 97.28c-12.8 11.947-22.187 34.133-22.187 52.907v121.6c0 19.2 8.107 35.84 22.613 45.653s33.28 11.093 51.2 3.413l209.92-90.453c6.4-2.56 10.667-2.56 11.947-1.707s2.987 4.693 2.987 11.52v55.040c0 16.213-13.653 37.12-28.16 43.093l-238.080 102.828c-18.773 8.107-32 28.587-32 49.067v128c0 28.16-22.187 64.427-47.787 77.227-3.413 1.707-7.68 1.707-11.52 0-24.747-12.8-47.36-49.92-47.36-77.653v-128c0-20.053-13.227-40.96-32-49.067l-238.079-102.828c-14.933-5.973-28.587-26.88-28.587-42.667v-55.040c0-6.827 1.707-10.667 2.987-11.52s5.547-0.853 11.947 1.707l209.493 90.453c7.68 3.413 15.787 5.12 23.467 5.12z" />
<glyph unicode="&#xe909;" glyph-name="airplane-square" d="M616.939 92.583c-9.813 0-19.627 2.133-28.587 6.827-2.133 1.28-4.267 2.56-5.973 4.267l-71.253 60.587-69.973-60.587c-2.133-1.707-4.267-2.987-6.4-4.267-16.639-8.107-35.412-8.96-52.052-1.707-17.067 7.253-29.867 21.333-35.84 38.827l-13.653 40.96c-7.253 21.333-0.853 48.213 14.933 64.427l71.253 69.973-0.427 61.867-128.427-55.040c-21.333-8.96-43.52-8.107-60.587 3.413-16.64 10.667-26.453 30.72-26.453 53.76v39.68c0 33.28 23.040 68.693 53.76 81.92l161.707 69.546v81.493c0 41.813 27.732 87.040 64.852 104.96 18.347 8.96 39.253 8.96 57.6 0 37.12-19.2 64.853-64.427 64.853-104.96v-81.493l161.707-69.546c30.72-12.8 53.76-48.213 53.76-81.92v-39.68c0-23.040-9.813-43.093-27.307-54.187s-39.253-12.373-60.587-3.413l-128 55.040v-62.72l69.547-69.547c15.787-15.787 22.187-43.093 14.933-64.427l-13.653-40.533c-5.973-17.493-18.773-31.573-35.84-38.4-7.68-3.413-15.787-5.12-23.893-5.12zM511.979 227.409c14.507 0 28.587-4.693 40.107-13.653l66.133-56.32 11.52 39.68-69.547 69.12c-11.093 10.667-18.347 28.587-18.347 44.373v78.933c0 19.2 8.107 35.84 22.613 45.653s33.28 11.093 51.2 3.413l141.653-60.587 0.427 37.547c0 8.107-7.68 20.053-14.933 23.040l-168.533 72.533c-18.347 7.679-32 28.159-32 49.066v88.32c0 16.64-14.507 40.107-29.44 47.787-15.36-7.68-29.867-30.72-29.867-47.787v-88.32c0-20.053-13.227-40.96-32-49.066l-168.105-72.533c-7.253-2.987-15.36-15.36-15.36-23.040v-37.547l141.227 60.16c17.493 7.68 35.839 6.827 50.772-2.987s23.467-26.453 23.467-46.080v-78.933c0-15.36-7.253-33.28-18.347-44.373l-71.679-70.4 13.653-37.547 64.425 54.613c11.947 9.813 26.453 14.933 40.96 14.933zM599.445 570.022l0.427-0.427c0 0.427-0.427 0.427-0.427 0.427zM640-32h-256c-231.68 0-330.667 98.987-330.667 330.667v256c0 231.68 98.987 330.667 330.667 330.667h256c231.68 0 330.667-98.987 330.667-330.667v-256c0-231.68-98.987-330.667-330.667-330.667zM384 821.334c-196.693 0-266.667-69.973-266.667-266.667v-256c0-196.693 69.973-266.667 266.667-266.667h256c196.693 0 266.667 69.973 266.667 266.667v256c0 196.693-69.973 266.667-266.667 266.667h-256z" />
<glyph unicode="&#xe90a;" glyph-name="airpod" d="M645.116-32h-266.241c-171.947 0-274.773 33.707-293.547 206.507-3.413 24.747-5.12 54.187-5.12 92.16v320c0 36.693 1.707 66.987 5.12 92.587 19.627 173.227 118.187 206.080 293.973 206.080h266.668c175.787 0 274.773-32.853 293.547-206.933 4.267-28.587 5.12-61.013 5.12-91.733v-320c0-37.12-1.707-66.56-5.12-93.013-19.627-172.8-118.613-205.653-294.4-205.653zM378.875 821.334c-181.333 0-218.027-39.253-230.4-149.76-3.413-23.467-4.693-51.2-4.693-84.907v-320c0-34.987 1.707-61.44 4.693-84.053 12.373-111.36 48.64-150.613 230.4-150.613h266.241c181.333 0 218.027 39.253 230.4 149.333 2.987 23.467 4.693 51.2 4.693 85.333v320c0 28.16-0.427 58.027-4.267 83.627-12.373 111.787-48.64 151.040-230.4 151.040h-266.668zM905.809 526.084h-174.933c-17.493 0-32 14.507-32 32s14.507 32 32 32h174.933c17.493 0 32-14.507 32-32s-14.507-32-32-32zM293.1 526.084h-174.933c-17.493 0-32 14.507-32 32s14.507 32 32 32h174.933c17.493 0 32-14.507 32-32s-14.507-32-32-32zM643.418 438.609h-262.826c-32 0-62.72 12.8-84.907 35.84-22.187 21.333-34.56 51.626-34.56 83.626 0 65.707 53.76 119.467 119.467 119.467h262.399c32 0 62.72-13.227 84.907-35.84 22.187-21.76 34.987-51.627 34.987-83.627 0-65.706-53.76-119.466-119.467-119.466zM380.592 613.542c-30.72 0-55.467-24.747-55.467-55.467 0-14.933 5.547-28.587 15.787-38.4 10.667-11.092 24.747-17.066 39.68-17.066h262.826c30.72 0 55.467 24.746 55.467 55.466 0 14.507-5.973 28.16-16.213 38.4-10.667 11.093-24.747 17.067-39.68 17.067h-262.399z" />
<glyph unicode="&#xe90b;" glyph-name="airpods" d="M367.37 96c-62.293 0-112.639 50.347-112.639 112.64v290.56h-8.534c-106.667 0-193.28 86.612-193.28 193.279s86.613 193.281 193.28 193.281h80.641c84.48 0 152.745-68.694 152.745-152.748v-523.946c0.427-62.72-49.92-113.067-112.212-113.067zM246.624 821.334c-71.253 0-129.28-58.028-129.28-129.281s58.027-129.279 129.28-129.279h40.534c17.493 0 32-14.507 32-32v-322.56c0-26.88 21.759-48.64 48.639-48.64s48.64 21.76 48.64 48.64v523.945c0 49.067-39.68 88.748-88.747 88.748h-81.067v0.427zM246.607 619.946c-39.68 0-72.107 32.425-72.107 72.531s32.427 72.107 72.107 72.107c17.493 0 32-14.507 32-32s-14.507-32-32-32c-4.693 0-8.107-3.84-8.107-8.107s3.84-8.531 8.107-8.531c17.493 0 32-14.507 32-32s-14.507-32-32-32zM656.64 96c-62.293 0-112.64 50.347-112.64 112.64v523.946c0 84.48 68.693 152.748 152.747 152.748h80.64c106.667 0 193.28-86.615 193.28-193.281s-86.613-193.279-193.28-193.279h-8.533v-290.56c0.427-61.867-50.347-112.213-112.213-112.213zM696.747 821.334c-49.067 0-88.747-39.681-88.747-88.748v-523.946c0-26.88 21.76-48.64 48.64-48.64s48.64 21.76 48.64 48.64v322.56c0 17.493 14.507 32 32 32h40.533c71.253 0 129.28 58.025 129.28 129.279s-58.027 129.281-129.28 129.281h-81.067v-0.427zM777.374 619.946c-17.493 0-32 14.507-32 32s14.507 32 32 32c4.693 0 8.107 3.838 8.107 8.531s-3.84 8.107-8.107 8.107c-17.493 0-32 14.507-32 32s14.507 32 32 32c39.68 0 72.107-32.427 72.107-72.107s-32-72.531-72.107-72.531zM362.667-32c-17.493 0-32 14.507-32 32v128c0 17.493 14.507 32 32 32s32-14.507 32-32v-128c0-17.493-14.507-32-32-32zM661.333-32c-17.493 0-32 14.507-32 32v128c0 17.493 14.507 32 32 32s32-14.507 32-32v-128c0-17.493-14.507-32-32-32z" />
<glyph unicode="&#xe90c;" glyph-name="alarm" d="M938.667-32h-853.333c-17.493 0-32 14.507-32 32s14.507 32 32 32h853.333c17.493 0 32-14.507 32-32s-14.507-32-32-32zM896-32h-768c-17.493 0-32 14.507-32 32v298.667c0 229.547 186.453 416 416 416s416-186.453 416-416v-298.667c0-17.493-14.507-32-32-32zM160 32h704v266.667c0 194.133-157.867 352-352 352s-352-157.867-352-352v-266.667zM512 778.667c-17.493 0-32 14.507-32 32v42.667c0 17.493 14.507 32 32 32s32-14.507 32-32v-42.667c0-17.493-14.507-32-32-32zM213.31 693.336c-8.107 0-16.213 2.987-22.613 9.387l-42.667 42.667c-12.373 12.373-12.373 32.853 0 45.227s32.853 12.373 45.227 0l42.667-42.667c12.373-12.373 12.373-32.853 0-45.227-6.4-6.4-14.507-9.387-22.613-9.387zM810.645 693.336c-8.107 0-16.213 2.987-22.613 9.387-12.373 12.373-12.373 32.853 0 45.227l42.667 42.667c12.373 12.373 32.853 12.373 45.227 0s12.373-32.853 0-45.227l-42.667-42.667c-6.4-6.4-14.507-9.387-22.613-9.387z" />
<glyph unicode="&#xe90d;" glyph-name="align-bottom" d="M726.605 95.996h-44.373c-85.76 0-127.147 39.68-127.147 121.6v503.467c0 17.493 14.507 32 32 32s32-14.507 32-32v-503.467c0-43.093 8.96-57.6 63.147-57.6h44.373c54.187 0 63.147 14.507 63.147 57.6v503.467c0 17.493 14.507 32 32 32s32-14.507 32-32v-503.467c0-81.92-41.387-121.6-127.147-121.6zM363.937 309.329h-44.373c-85.76 0-127.147 39.68-127.147 121.6v290.133c0 17.493 14.507 32 32 32s32-14.507 32-32v-290.133c0-43.093 8.96-57.6 63.147-57.6h44.373c54.187 0 63.148 14.507 63.148 57.6v290.133c0 17.493 14.507 32 32 32s32-14.507 32-32v-290.133c0-81.92-41.387-121.6-127.148-121.6zM938.667 693.334h-853.333c-17.92 0-32 14.507-32 32s14.080 32 32 32h853.333c17.493 0 32-14.507 32-32s-14.080-32-32-32z" />
<glyph unicode="&#xe90e;" glyph-name="align-horizontally" d="M342.187 74.667h-44.373c-85.76 0-127.147 39.68-127.147 121.6v460.8c0 81.92 41.813 121.6 127.147 121.6h44.373c85.333 0 127.147-39.68 127.147-121.6v-460.8c0-81.92-41.813-121.6-127.147-121.6zM297.813 714.667c-54.187 0-63.147-14.507-63.147-57.6v-460.8c0-43.093 8.96-57.6 63.147-57.6h44.373c54.187 0 63.147 14.507 63.147 57.6v460.8c0 43.093-8.96 57.6-63.147 57.6h-44.373zM704.853 160h-44.373c-85.76 0-127.147 39.68-127.147 121.6v290.133c0 81.92 41.813 121.6 127.147 121.6h44.373c85.76 0 127.147-39.68 127.147-121.6v-290.133c0-81.92-41.813-121.6-127.147-121.6zM660.48 629.334c-54.187 0-63.147-14.507-63.147-57.6v-290.133c0-43.093 8.96-57.6 63.147-57.6h44.373c54.187 0 63.147 14.507 63.147 57.6v290.133c0 43.093-8.96 57.6-63.147 57.6h-44.373zM187.733 394.667h-102.4c-17.493 0-32 14.507-32 32s14.080 32 32 32h102.4c17.493 0 32-14.507 32-32s-14.080-32-32-32zM554.667 394.667h-85.333c-17.493 0-32 14.507-32 32s14.507 32 32 32h85.333c17.493 0 32-14.507 32-32s-14.507-32-32-32zM938.701 394.667h-115.2c-17.493 0-32 14.507-32 32s14.507 32 32 32h115.2c17.493 0 32-14.507 32-32s-14.080-32-32-32z" />
<glyph unicode="&#xe90f;" glyph-name="align-left" d="M721.050 85.334h-503.466c-17.493 0-32 14.507-32 32s14.507 32 32 32h503.466c43.093 0 57.6 8.96 57.6 63.147v44.373c0 54.187-14.507 63.147-57.6 63.147h-503.466c-17.493 0-32 14.507-32 32s14.507 32 32 32h503.466c81.92 0 121.6-41.813 121.6-127.147v-44.373c0-85.333-39.68-127.147-121.6-127.147zM507.716 448h-290.133c-17.493 0-32 14.507-32 32s14.507 32 32 32h290.133c43.093 0 57.6 8.96 57.6 63.147v44.373c0 54.187-14.507 63.147-57.6 63.147h-290.133c-17.493 0-32 14.507-32 32s14.507 32 32 32h290.133c81.92 0 121.6-41.813 121.6-127.147v-44.373c0-85.333-39.68-127.147-121.6-127.147zM213.333-31.582c-17.493 0-32 14.507-32 32v853.332c0 17.493 14.507 32 32 32s32-14.507 32-32v-853.332c0-17.493-14.507-32-32-32z" />
<glyph unicode="&#xe910;" glyph-name="align-right" d="M806.4 85.334h-503.467c-81.92 0-121.6 41.813-121.6 127.147v44.373c0 85.333 39.68 127.147 121.6 127.147h503.467c17.493 0 32-14.507 32-32s-14.507-32-32-32h-503.467c-43.093 0-57.6-8.96-57.6-63.147v-44.373c0-54.187 14.507-63.147 57.6-63.147h503.467c17.493 0 32-14.507 32-32s-14.507-32-32-32zM806.4 448h-290.133c-81.92 0-121.6 41.813-121.6 127.147v44.373c0 85.76 39.68 127.147 121.6 127.147h290.133c17.493 0 32-14.507 32-32s-14.507-32-32-32h-290.133c-43.093 0-57.6-8.96-57.6-63.147v-44.373c0-54.187 14.507-63.147 57.6-63.147h290.133c17.493 0 32-14.507 32-32s-14.507-32-32-32zM810.667-31.582c-17.493 0-32 14.507-32 32v853.332c0 17.493 14.507 32 32 32s32-14.507 32-32v-853.332c0-17.493-14.507-32-32-32z" />
<glyph unicode="&#xe911;" glyph-name="align-vertically" d="M742.4 85.334h-460.8c-81.92 0-121.6 41.813-121.6 127.147v44.373c0 85.333 39.68 127.147 121.6 127.147h460.8c81.92 0 121.6-41.813 121.6-127.147v-44.373c0-85.333-39.68-127.147-121.6-127.147zM281.6 320c-43.093 0-57.6-8.96-57.6-63.147v-44.373c0-54.187 14.507-63.147 57.6-63.147h460.8c43.093 0 57.6 8.96 57.6 63.147v44.373c0 54.187-14.507 63.147-57.6 63.147h-460.8zM657.067 448h-290.133c-81.92 0-121.6 41.813-121.6 127.147v44.373c0 85.76 39.68 127.147 121.6 127.147h290.133c81.92 0 121.6-41.813 121.6-127.147v-44.373c0-85.333-39.68-127.147-121.6-127.147zM366.933 682.667c-43.093 0-57.6-8.96-57.6-63.147v-44.373c0-54.187 14.507-63.147 57.6-63.147h290.133c43.093 0 57.6 8.96 57.6 63.147v44.373c0 54.187-14.507 63.147-57.6 63.147h-290.133zM512-32.004c-17.493 0-32 14.507-32 32v102.4c0 17.493 14.507 32 32 32s32-14.507 32-32v-102.4c0-17.493-14.507-32-32-32zM512 352c-17.493 0-32 14.507-32 32v85.333c0 17.493 14.507 32 32 32s32-14.507 32-32v-85.333c0-17.493-14.507-32-32-32zM512 706.56c-17.493 0-32 14.507-32 32v114.773c0 17.493 14.507 32 32 32s32-14.080 32-32v-114.773c0-17.92-14.507-32-32-32z" />
<glyph unicode="&#xe912;" glyph-name="android" d="M426.667-32c-40.96 0-74.667 33.707-74.667 74.667v128c0 17.493 14.507 32 32 32h85.333c17.493 0 32-14.507 32-32v-128c0-40.96-33.707-74.667-74.667-74.667zM416 138.667v-96c0-11.52 21.333-11.52 21.333 0v96h-21.333zM597.333-32c-40.96 0-74.667 33.707-74.667 74.667v128c0 17.493 14.507 32 32 32h85.333c17.493 0 32-14.507 32-32v-128c0-40.96-33.707-74.667-74.667-74.667zM586.667 138.667v-96c0-11.52 21.333-11.52 21.333 0v96h-21.333zM640 138.667h-256c-64.853 0-117.333 52.48-117.333 117.333v213.333c0 64.853 52.48 117.333 117.333 117.333h256c64.853 0 117.333-52.48 117.333-117.333v-213.333c0-64.853-52.48-117.333-117.333-117.333zM384 522.667c-29.44 0-53.333-23.893-53.333-53.333v-213.333c0-29.44 23.893-53.333 53.333-53.333h256c29.44 0 53.333 23.893 53.333 53.333v213.333c0 29.44-23.893 53.333-53.333 53.333h-256zM170.667 224c-40.96 0-74.667 33.707-74.667 74.667v170.667c0 40.96 33.707 74.667 74.667 74.667s74.667-33.707 74.667-74.667v-170.667c0-40.96-33.707-74.667-74.667-74.667zM170.667 480c-5.973 0-10.667-4.693-10.667-10.667v-170.667c0-11.947 21.333-11.947 21.333 0v170.667c0 5.973-4.693 10.667-10.667 10.667zM853.333 224c-40.96 0-74.667 33.707-74.667 74.667v170.667c0 40.96 33.707 74.667 74.667 74.667s74.667-33.707 74.667-74.667v-170.667c0-40.96-33.707-74.667-74.667-74.667zM853.333 480c-5.973 0-10.667-4.693-10.667-10.667v-170.667c0-11.947 21.333-11.947 21.333 0v170.667c0 5.973-4.693 10.667-10.667 10.667zM554.667 138.667h-85.333c-17.493 0-32 14.507-32 32s14.507 32 32 32h85.333c17.493 0 32-14.507 32-32s-14.507-32-32-32zM614.4 608.004h-204.801c-55.467 0-100.266 44.8-100.266 100.267 0 111.787 90.88 202.667 202.667 202.667s202.667-90.88 202.667-202.667c0-55.467-44.8-100.267-100.267-100.267zM512 846.938c-76.373 0-138.667-62.293-138.667-138.667 0-20.053 16.212-36.267 36.266-36.267h204.801c20.053 0 36.267 16.214 36.267 36.267 0 76.373-62.293 138.667-138.667 138.667z" />
<glyph unicode="&#xe913;" glyph-name="ankr" d="M891.324 489.396c-17.493 0-32 14.507-32 31.999v122.453l-347.307 173.654-347.309-173.654v-122.453c0-17.492-14.507-31.999-32-31.999s-32 14.507-32 31.999v142.080c0 11.947 6.829 23.040 17.922 28.586l379.302 189.44c8.96 4.693 19.631 4.693 28.591 0l379.302-189.44c10.667-5.547 17.924-16.64 17.924-28.586v-142.080c-0.427-17.492-14.933-31.999-32.427-31.999zM512.017-32c-5.12 0-9.818 1.28-14.084 3.413l-379.302 189.44c-10.667 5.547-17.922 16.64-17.922 28.587v142.080c0 17.493 14.507 32 32 32s32-14.507 32-32v-122.453l347.309-173.653 347.307 173.653v122.453c0 17.493 14.507 32 32 32s32-14.507 32-32v-142.080c0-11.947-6.831-23.040-17.924-28.587l-379.302-189.44c-4.267-2.133-8.96-3.413-14.080-3.413zM512-31.995c-17.493 0-32 14.507-32 32v237.227c0 17.493 14.507 32 32 32s32-14.507 32-32v-237.227c0-17.493-14.507-32-32-32zM511.983 205.223c-122.028 0-221.441 99.413-221.441 221.44 0 122.028 99.413 221.442 221.441 221.442s221.44-99.413 221.44-221.442c0-122.027-99.413-221.44-221.44-221.44zM511.983 584.104c-87.041 0-157.441-70.827-157.441-157.442 0-86.613 70.827-157.44 157.441-157.44 86.613 0 157.44 70.827 157.44 157.44 0 86.615-70.4 157.442-157.44 157.442z" />
<glyph unicode="&#xe914;" glyph-name="apple" d="M393.795-32.004c-0.427 0-0.854 0-1.707 0-71.68 0.427-122.88 64.853-159.147 120.747-92.587 142.080-111.36 320.853-44.373 424.535 44.8 69.547 117.333 112.641 189.013 112.641 37.12 0 66.135-10.241 91.735-19.628 20.48-7.253 37.973-13.652 56.32-13.652 16.213 0 30.293 5.546 48.213 12.372 24.747 9.387 55.040 20.908 98.987 20.908 63.147 0 128-33.707 173.227-90.88 5.973-7.253 8.107-17.067 6.4-26.028-1.707-9.387-7.68-17.067-15.787-21.76-48.213-26.453-74.667-74.667-70.827-129.28 3.84-55.467 37.973-102.4 89.173-121.6 8.107-2.987 14.933-9.387 18.347-17.493s3.413-17.493-0.427-25.173c-18.773-41.813-28.16-61.013-52.48-98.56-40.533-62.293-91.733-126.293-161.707-127.147-30.293 0-50.773 8.96-68.693 17.493-17.92 8.107-35.413 14.507-63.147 15.36-29.867 0-45.653-7.253-64-15.36-18.773-8.533-39.255-17.493-69.121-17.493zM377.581 561.918c-50.347 0-101.973-32-135.253-83.202-45.227-69.973-44.8-218.027 44.373-354.987 27.733-42.667 64.853-91.307 106.24-91.733 15.36 0.427 26.88 4.693 42.668 11.52 20.907 9.387 46.933 20.907 90.027 21.333 42.24 0.853 69.547-11.52 90.453-21.333 15.36-7.253 25.6-11.947 41.387-11.52 40.107 0.427 78.933 52.48 108.8 97.707 15.787 24.32 24.747 39.68 34.56 61.44-57.173 33.707-94.72 93.013-99.413 162.133-4.693 65.28 21.76 126.293 70.4 166.828-29.867 26.453-65.28 41.387-99.413 41.387-32 0-53.333-8.108-75.947-16.641-21.333-8.107-43.52-16.639-71.253-16.639-29.44 0-53.76 8.96-77.653 17.066-22.615 8.96-44.375 16.641-69.975 16.641zM504.303 634.451c-1.28 0-2.987 0-4.267 0-14.933 0.427-27.733 11.52-30.293 26.453-8.96 48.213 8.107 103.681 45.227 148.908 34.133 41.387 90.453 72.106 140.373 75.52 17.493 0.853 31.573-10.668 33.707-27.308 7.253-49.92-8.533-104.533-43.947-150.186-34.56-44.8-89.6-73.387-140.8-73.387zM625.050 812.797c-23.040-9.387-45.653-25.173-60.587-43.52-14.080-17.067-27.307-40.96-31.573-65.707 23.040 7.68 46.080 23.040 61.867 43.52 8.533 10.667 24.747 35.412 30.293 65.706z" />
<glyph unicode="&#xe915;" glyph-name="aquarius" d="M512 224c-17.493 0-32 14.507-32 32s14.507 32 32 32c147.2 0 266.667 119.467 266.667 266.667s-119.467 266.667-266.667 266.667c-147.2 0-266.667-119.467-266.667-266.667 0-17.493-14.507-32-32-32s-32 14.507-32 32c0 182.187 148.48 330.667 330.667 330.667s330.667-148.48 330.667-330.667c0-182.187-148.48-330.667-330.667-330.667zM512-32c-17.493 0-32 14.507-32 32v256c0 17.493 14.507 32 32 32s32-14.507 32-32v-256c0-17.493-14.507-32-32-32zM640 96h-256c-17.493 0-32 14.507-32 32s14.507 32 32 32h256c17.493 0 32-14.507 32-32s-14.507-32-32-32z" />
<glyph unicode="&#xe916;" glyph-name="archive" d="M640-32h-256c-231.68 0-330.667 98.987-330.667 330.667v256c0 231.68 98.987 330.667 330.667 330.667h256c231.68 0 330.667-98.987 330.667-330.667v-256c0-231.68-98.987-330.667-330.667-330.667zM384 821.334c-196.693 0-266.667-69.973-266.667-266.667v-256c0-196.693 69.973-266.667 266.667-266.667h256c196.693 0 266.667 69.973 266.667 266.667v256c0 196.693-69.973 266.667-266.667 266.667h-256zM768 288c-17.493 0-32 14.507-32 32 0 29.44-23.893 53.333-53.333 53.333h-341.333c-29.44 0-53.333-23.893-53.333-53.333 0-17.493-14.507-32-32-32s-32 14.507-32 32v288c0 64.853 52.48 117.333 117.333 117.333h341.333c64.853 0 117.333-52.48 117.333-117.333v-288c0-17.493-14.507-32-32-32zM341.333 437.334h341.333c19.2 0 37.547-4.693 53.333-12.8v183.467c0 29.44-23.893 53.333-53.333 53.333h-341.333c-29.44 0-53.333-23.893-53.333-53.333v-183.467c15.787 8.107 34.133 12.8 53.333 12.8zM810.667 234.667h-42.667c-17.493 0-32 14.507-32 32s14.507 32 32 32h42.667c17.493 0 32-14.507 32-32s-14.507-32-32-32zM256 234.667h-42.667c-17.493 0-32 14.507-32 32s14.507 32 32 32h42.667c17.493 0 32-14.507 32-32s-14.507-32-32-32zM768 309.334c-17.493 0-32 14.507-32 32v128c0 29.44-23.893 53.333-53.333 53.333h-341.333c-29.44 0-53.333-23.893-53.333-53.333v-128c0-17.493-14.507-32-32-32s-32 14.507-32 32v128c0 64.853 52.48 117.333 117.333 117.333h341.333c64.853 0 117.333-52.48 117.333-117.333v-128c0-17.493-14.507-32-32-32zM512 128c-65.28 0-120.319 45.653-134.825 106.667h-121.175c-17.493 0-32 14.507-32 32v53.333c0 64.853 52.48 117.333 117.333 117.333h341.333c64.853 0 117.333-52.48 117.333-117.333v-53.333c0-17.493-14.507-32-32-32h-121.173c-14.507-61.013-69.547-106.667-134.827-106.667zM288 298.667h117.333c17.493 0 32-14.507 32-32 0-40.96 33.707-74.667 74.667-74.667s74.667 33.707 74.667 74.667c0 17.493 14.507 32 32 32h117.333v21.333c0 29.44-23.893 53.333-53.333 53.333h-341.333c-29.44 0-53.333-23.893-53.333-53.333v-21.333z" />
<glyph unicode="&#xe917;" glyph-name="archive-1" d="M511.991 500.049c-43.52 0-87.042 7.68-128.428 22.615-16.64 5.973-25.173 24.32-19.2 40.96 6.4 16.64 24.747 25.173 41.387 19.2 68.695-24.747 144.215-24.747 212.908 0 16.64 5.973 34.987-2.56 40.96-19.2s-2.56-34.987-19.2-40.96c-41.387-14.935-84.907-22.615-128.427-22.615zM813.666-32c-21.76 0-45.653 6.4-68.693 19.627l-208.213 115.627c-12.373 6.827-36.693 6.827-49.067 0l-208.213-115.627c-42.24-23.467-85.333-26.027-118.187-6.4-32.853 19.2-51.627 58.027-51.627 106.24v601.173c0 108.373 88.32 196.693 196.693 196.693h411.733c108.373 0 196.693-88.32 196.693-196.693v-601.173c0-48.213-18.773-87.040-51.627-106.24-14.933-8.96-32-13.227-49.493-13.227zM512.013 172.374c20.053 0 39.68-4.267 55.467-13.227l208.213-115.627c21.76-12.373 41.813-14.933 54.613-7.253s20.053 26.027 20.053 51.2v601.173c0 72.96-59.733 132.693-132.693 132.693h-411.306c-72.96 0-132.693-59.733-132.693-132.693v-601.173c0-25.173 7.253-43.947 20.053-51.2s32.427-5.12 54.613 7.253l208.213 115.627c15.787 8.96 35.413 13.227 55.467 13.227z" />
<glyph unicode="&#xe918;" glyph-name="archive-2" d="M704-32h-384c-140.8 0-160 76.8-160 160v374.613c0 17.495 14.507 32.001 32 32.001s32-14.507 32-32.001v-374.613c0-74.24 12.8-96 96-96h384c83.2 0 96 21.76 96 96v374.613c0 17.495 14.507 32.001 32 32.001s32-14.507 32-32.001v-374.613c0-83.2-19.2-160-160-160zM810.667 480h-597.333c-103.253 0-160 56.747-160 160v85.333c0 103.253 56.747 160 160 160h597.333c103.253 0 160-56.747 160-160v-85.333c0-103.253-56.747-160-160-160zM213.333 821.334c-67.413 0-96-28.587-96-96v-85.333c0-67.413 28.587-96 96-96h597.333c67.413 0 96 28.587 96 96v85.333c0 67.413-28.587 96-96 96h-597.333zM589.641 309.334h-155.307c-17.494 0-32 14.507-32 32s14.507 32 32 32h155.307c17.493 0 32-14.507 32-32s-14.507-32-32-32z" />
<glyph unicode="&#xe919;" glyph-name="archive-add" d="M618.667 452.271h-213.333c-17.493 0-32 14.507-32 32s14.507 32 32 32h213.333c17.493 0 32-14.507 32-32s-14.507-32-32-32zM512 343.040c-17.493 0-32 14.507-32 32v213.335c0 17.493 14.507 32 32 32s32-14.507 32-32v-213.335c0-17.493-14.507-32-32-32zM813.666-32c-21.76 0-45.653 6.4-68.693 19.627l-208.213 115.627c-12.373 6.827-36.693 6.827-49.067 0l-208.213-115.627c-42.24-23.467-85.333-26.027-118.187-6.4-32.853 19.2-51.627 58.027-51.627 106.24v601.173c0 108.373 88.32 196.693 196.693 196.693h411.733c108.373 0 196.693-88.32 196.693-196.693v-601.173c0-48.213-18.773-87.040-51.627-106.24-14.933-8.96-32-13.227-49.493-13.227zM512.013 172.374c20.053 0 39.68-4.267 55.467-13.227l208.213-115.627c21.76-12.373 41.813-14.933 54.613-7.253s20.053 26.027 20.053 51.2v601.173c0 72.96-59.733 132.693-132.693 132.693h-411.306c-72.96 0-132.693-59.733-132.693-132.693v-601.173c0-25.173 7.253-43.947 20.053-51.2s32.853-5.12 54.613 7.253l208.213 115.627c15.787 8.96 35.413 13.227 55.467 13.227z" />
<glyph unicode="&#xe91a;" glyph-name="archive-book" d="M682.667-32h-341.333c-155.733 0-245.333 89.6-245.333 245.333v426.667c0 155.733 89.6 245.333 245.333 245.333h341.333c155.733 0 245.333-89.6 245.333-245.333v-426.667c0-155.733-89.6-245.333-245.333-245.333zM341.333 821.334c-122.027 0-181.333-59.307-181.333-181.333v-426.667c0-122.027 59.307-181.333 181.333-181.333h341.333c122.027 0 181.333 59.307 181.333 181.333v426.667c0 122.027-59.307 181.333-181.333 181.333h-341.333zM384 464.64c-7.253 0-14.507 1.28-21.333 4.267-19.627 8.533-32 27.733-32 48.64v335.787c0 17.493 14.507 32 32 32h298.667c17.493 0 32-14.507 32-32v-335.36c0-21.334-12.373-40.534-32-48.64-19.2-8.533-41.813-4.693-57.6 9.813l-91.733 84.054-91.734-84.48c-10.24-9.387-23.039-14.080-36.266-14.080zM512 631.039c12.8 0 26.027-4.692 36.267-14.078l81.067-74.667v279.039h-234.667v-279.039l81.067 74.667c10.24 9.387 23.467 14.078 36.267 14.078zM746.667 309.334h-181.333c-17.493 0-32 14.507-32 32s14.507 32 32 32h181.333c17.493 0 32-14.507 32-32s-14.507-32-32-32zM746.667 138.667h-362.667c-17.493 0-32 14.507-32 32s14.507 32 32 32h362.667c17.493 0 32-14.507 32-32s-14.507-32-32-32z" />
<glyph unicode="&#xe91b;" glyph-name="archive-minus" d="M618.667 452.271h-213.333c-17.493 0-32 14.507-32 32s14.507 32 32 32h213.333c17.493 0 32-14.507 32-32s-14.507-32-32-32zM210.328-32c-17.92 0-34.56 4.267-49.493 12.8-32.853 19.2-51.627 58.027-51.627 106.24v601.6c0 108.373 88.32 196.693 196.693 196.693h411.735c108.373 0 196.693-88.32 196.693-196.693v-601.173c0-48.213-18.773-87.040-51.627-106.24s-75.947-17.067-118.187 6.4l-208.213 115.627c-12.373 6.827-36.693 6.827-49.067 0l-208.215-115.627c-23.040-12.8-46.507-19.627-68.693-19.627zM306.328 821.334c-72.96 0-132.693-59.733-132.693-132.693v-601.173c0-25.173 7.253-43.947 20.053-51.2 12.8-7.68 32.853-5.12 54.613 7.253l208.215 115.627c31.573 17.493 79.36 17.493 110.933 0l208.213-115.627c21.76-12.373 41.813-14.933 54.613-7.253s20.053 26.453 20.053 51.2v601.173c0 72.96-59.733 132.693-132.693 132.693h-411.308z" />
<glyph unicode="&#xe91c;" glyph-name="archive-slash" d="M85.352-31.995c-8.107 0-16.213 2.987-22.613 9.387-12.373 12.373-12.373 32.853 0 45.227l853.332 853.332c12.373 12.373 32.853 12.373 45.227 0s12.373-32.853 0-45.227l-853.332-853.332c-6.4-6.4-14.507-9.387-22.613-9.387zM805.534-32c-23.893 0-49.493 7.253-75.093 21.333l-278.187 173.653c-14.933 9.387-19.627 29.013-10.24 43.947s29.013 19.627 43.947 10.24l276.907-172.8c23.893-13.227 47.787-16.213 63.147-7.253s24.32 31.147 24.32 60.587v469.335c0 17.493 14.507 32 32 32s32-14.507 32-32v-469.335c0-52.48-20.48-94.72-55.893-115.627-15.787-9.387-33.707-14.080-52.907-14.080zM141.667 55.467c-17.493 0-32 14.507-32 32v601.173c0 108.373 88.32 196.693 196.693 196.693h411.733c59.307 0 115.2-26.453 152.747-72.96 11.093-13.653 8.96-33.707-4.693-45.227-13.653-11.093-33.707-8.96-44.8 4.693-25.6 31.573-63.147 49.493-103.253 49.493h-411.733c-72.96 0-132.693-59.733-132.693-132.693v-601.173c0-17.493-14.507-32-32-32z" />
<glyph unicode="&#xe91d;" glyph-name="archive-tick" d="M210.328-32c-17.92 0-34.56 4.267-49.493 12.8-32.853 19.2-51.627 58.027-51.627 106.24v601.6c0 108.373 88.32 196.693 196.693 196.693h411.735c108.373 0 196.693-88.32 196.693-196.693v-601.173c0-48.213-18.773-87.040-51.627-106.24s-75.947-17.067-118.187 6.4l-208.213 115.627c-12.373 6.827-36.693 6.827-49.067 0l-208.215-115.627c-23.040-12.8-46.507-19.627-68.693-19.627zM306.328 821.334c-72.96 0-132.693-59.733-132.693-132.693v-601.173c0-25.173 7.253-43.947 20.053-51.2s32.853-5.12 54.613 7.253l208.215 115.627c31.573 17.493 79.36 17.493 110.933 0l208.213-115.627c21.76-12.373 41.813-14.933 54.613-7.253s20.053 26.453 20.053 51.2v601.173c0 72.96-59.733 132.693-132.693 132.693h-411.308zM473.186 373.338c-8.107 0-16.213 2.987-22.613 9.387l-64.001 64c-12.373 12.373-12.373 32.853 0 45.227s32.853 12.373 45.228 0l41.387-41.387 148.053 148.052c12.373 12.373 32.853 12.373 45.227 0s12.373-32.853 0-45.227l-170.667-170.665c-6.4-6.4-14.507-9.387-22.613-9.387z" />
<glyph unicode="&#xe91e;" glyph-name="arrange-circle" d="M719.347 484.694c-8.107 0-16.213 2.987-22.613 9.387l-129.702 129.705c-12.373 12.373-12.373 32.853 0 45.227s32.853 12.373 45.227 0l129.707-129.706c12.373-12.373 12.373-32.852 0-45.226-6.4-5.973-14.511-9.387-22.618-9.387zM589.666 174.942c-17.493 0-32 14.507-32 32v439.892c0 17.493 14.507 32 32 32s32-14.507 32-32v-439.892c0-17.92-14.507-32-32-32zM434.351 174.942c-8.107 0-16.214 2.987-22.614 9.387l-129.707 129.707c-12.373 12.373-12.373 32.853 0 45.227s32.855 12.373 45.228 0l129.706-129.707c12.373-12.373 12.373-32.853 0-45.227-5.973-6.4-14.080-9.387-22.613-9.387zM434.334 174.942c-17.494 0-32 14.507-32 32v439.892c0 17.493 14.507 32 32 32s32-14.507 32-32v-439.892c0-17.92-14.080-32-32-32zM512-32c-253.013 0-458.667 205.653-458.667 458.667s205.653 458.667 458.667 458.667c253.013 0 458.667-205.653 458.667-458.667s-205.653-458.667-458.667-458.667zM512 821.334c-217.6 0-394.667-177.067-394.667-394.667s177.067-394.667 394.667-394.667c217.6 0 394.667 177.067 394.667 394.667s-177.067 394.667-394.667 394.667z" />
<glyph unicode="&#xe91f;" glyph-name="arrange-circle-2" d="M602.061 187.307c-8.107 0-16.213 2.987-22.613 9.387-12.373 12.373-12.373 32.853 0 45.227l129.707 129.707c12.373 12.373 32.853 12.373 45.227 0s12.373-32.853 0-45.227l-129.707-129.707c-5.973-5.973-14.080-9.387-22.613-9.387zM731.725 317.009h-439.892c-17.493 0-32 14.507-32 32s14.507 32 32 32h439.892c17.493 0 32-14.507 32-32s-14.080-32-32-32zM292.227 472.316c-8.107 0-16.213 2.987-22.613 9.387-12.373 12.373-12.373 32.854 0 45.227l129.706 129.707c12.373 12.373 32.856 12.373 45.229 0s12.373-32.855 0-45.228l-129.708-129.706c-6.4-6.4-14.507-9.387-22.613-9.387zM731.725 472.325h-439.892c-17.493 0-32 14.507-32 32s14.507 31.999 32 31.999h439.892c17.493 0 32-14.507 32-31.999s-14.080-32-32-32zM512-32c-253.013 0-458.667 205.653-458.667 458.667s205.653 458.667 458.667 458.667c253.013 0 458.667-205.653 458.667-458.667s-205.653-458.667-458.667-458.667zM512 821.334c-217.6 0-394.667-177.067-394.667-394.667s177.067-394.667 394.667-394.667c217.6 0 394.667 177.067 394.667 394.667s-177.067 394.667-394.667 394.667z" />
<glyph unicode="&#xe920;" glyph-name="arrange-square" d="M640-32h-256c-231.68 0-330.667 98.987-330.667 330.667v256c0 231.68 98.987 330.667 330.667 330.667h256c231.68 0 330.667-98.987 330.667-330.667v-256c0-231.68-98.987-330.667-330.667-330.667zM384 821.334c-196.693 0-266.667-69.973-266.667-266.667v-256c0-196.693 69.973-266.667 266.667-266.667h256c196.693 0 266.667 69.973 266.667 266.667v256c0 196.693-69.973 266.667-266.667 266.667h-256zM602.061 187.307c-8.107 0-16.213 2.987-22.613 9.387-12.373 12.373-12.373 32.853 0 45.227l129.707 129.707c12.373 12.373 32.853 12.373 45.227 0s12.373-32.853 0-45.227l-129.707-129.707c-5.973-5.973-14.080-9.387-22.613-9.387zM731.716 317.009h-439.466c-17.493 0-32 14.507-32 32s14.507 32 32 32h439.893c17.493 0 32-14.507 32-32s-14.507-32-32.427-32zM292.227 472.316c-8.107 0-16.213 2.987-22.613 9.387-12.373 12.373-12.373 32.854 0 45.228l129.707 129.707c12.373 12.373 32.855 12.373 45.228 0s12.373-32.853 0-45.227l-129.708-129.708c-6.4-6.4-14.507-9.387-22.613-9.387zM731.716 472.312h-439.466c-17.493 0-32 14.507-32 32s14.507 32.001 32 32.001h439.893c17.493 0 32-14.507 32-32.001s-14.507-32-32.427-32z" />
<glyph unicode="&#xe921;" glyph-name="arrange-square-2" d="M640-32h-256c-231.68 0-330.667 98.987-330.667 330.667v256c0 231.68 98.987 330.667 330.667 330.667h256c231.68 0 330.667-98.987 330.667-330.667v-256c0-231.68-98.987-330.667-330.667-330.667zM384 821.334c-196.693 0-266.667-69.973-266.667-266.667v-256c0-196.693 69.973-266.667 266.667-266.667h256c196.693 0 266.667 69.973 266.667 266.667v256c0 196.693-69.973 266.667-266.667 266.667h-256zM434.351 174.934c-8.108 0-16.214 2.987-22.614 9.387l-129.707 129.707c-12.373 12.373-12.373 32.853 0 45.227s32.853 12.373 45.227 0l129.708-129.707c12.373-12.373 12.373-32.853 0-45.227-5.973-6.4-14.080-9.387-22.613-9.387zM434.334 174.929c-17.494 0-32 14.507-32 32v439.467c0 17.493 14.507 32 32 32s32-14.507 32-32v-439.893c0-17.493-14.080-31.573-32-31.573zM719.351 484.694c-8.107 0-16.213 2.987-22.613 9.387l-129.707 129.705c-12.373 12.373-12.373 32.853 0 45.227s32.853 12.373 45.227 0l129.707-129.707c12.373-12.373 12.373-32.852 0-45.225-6.4-5.973-14.507-9.387-22.613-9.387zM589.666 174.929c-17.493 0-32 14.507-32 32v439.467c0 17.493 14.507 32 32 32s32-14.507 32-32v-439.893c0-17.493-14.507-31.573-32-31.573z" />
<glyph unicode="&#xe922;" glyph-name="arrow" d="M512-32c-17.493 0-32 14.507-32 32v85.333c0 17.493 14.507 32 32 32s32-14.507 32-32v-85.333c0-17.493-14.507-32-32-32zM512 138.667c-17.493 0-32 14.507-32 32v85.333c0 17.493 14.507 32 32 32s32-14.507 32-32v-85.333c0-17.493-14.507-32-32-32zM512 309.334c-17.493 0-32 14.507-32 32v128c0 182.187 148.48 330.667 330.667 330.667h128c17.493 0 32-14.507 32-32s-14.507-32-32-32h-128c-147.2 0-266.667-119.467-266.667-266.667v-128c0-17.493-14.507-32-32-32zM512 309.334c-17.493 0-32 14.507-32 32v128c0 147.2-119.467 266.667-266.667 266.667h-128c-17.493 0-32 14.507-32 32s14.507 32 32 32h128c182.187 0 330.667-148.48 330.667-330.667v-128c0-17.493-14.507-32-32-32zM170.644 650.67c-8.107 0-16.215 2.987-22.615 9.387l-85.333 85.333c-12.373 12.373-12.373 32.853 0 45.227l85.333 85.333c12.373 12.373 32.856 12.373 45.229 0s12.373-32.853 0-45.227l-62.721-62.72 62.721-62.72c12.373-12.373 12.373-32.853 0-45.227-6.4-6.4-14.508-9.387-22.615-9.387zM853.312 650.67c-8.107 0-16.213 2.987-22.613 9.387-12.373 12.373-12.373 32.853 0 45.227l62.72 62.72-62.72 62.72c-12.373 12.373-12.373 32.853 0 45.227s32.853 12.373 45.227 0l85.333-85.333c12.373-12.373 12.373-32.853 0-45.227l-85.333-85.333c-6.4-6.4-14.507-9.387-22.613-9.387z" />
<glyph unicode="&#xe923;" glyph-name="arrow-2" d="M737.229 460.792c-8.107 0-16.213 2.987-22.613 9.387-12.373 12.373-12.373 32.853 0 45.227l136.107 136.107-136.107 136.107c-12.373 12.373-12.373 32.853 0 45.226 12.369 12.373 32.849 12.373 45.222 0l158.724-158.721c5.973-5.973 9.387-14.079 9.387-22.612s-3.413-16.641-9.387-22.614l-158.724-158.719c-6.4-5.973-14.502-9.387-22.609-9.387zM896 619.521h-768c-17.493 0-32 14.507-32 32s14.507 32 32 32h768c17.493 0 32-14.507 32-32s-14.507-32-32-32zM286.719 10.667c-8.107 0-16.212 2.987-22.612 9.387l-158.721 158.72c-5.973 5.973-9.385 14.080-9.385 22.613s3.412 16.64 9.385 22.613l158.721 158.72c12.373 12.373 32.853 12.373 45.227 0s12.373-32.853 0-45.227l-136.107-136.107 136.107-136.102c12.373-12.373 12.373-32.858 0-45.231-5.973-6.4-14.081-9.387-22.615-9.387zM896 169.814h-768c-17.493 0-32 14.507-32 32s14.507 32 32 32h768c17.493 0 32-14.507 32-32s-14.507-32-32-32z" />
<glyph unicode="&#xe924;" glyph-name="arrow-3" d="M445.837 619.948c-8.107 0-16.218 2.985-22.617 9.385l-136.107 136.107-136.107-136.107c-12.373-12.373-32.853-12.373-45.227 0s-12.373 32.853 0 45.227l158.721 158.721c5.973 5.973 14.079 9.385 22.612 9.385s16.641-3.412 22.615-9.385l158.718-158.721c12.373-12.373 12.373-32.853 0-45.227-6.4-6.4-14.507-9.385-22.609-9.385zM287.167 10.667c-17.493 0-32 14.507-32 32v768c0 17.493 14.507 32 32 32s32-14.507 32-32v-768c0-17.493-14.507-32-32-32zM737.28 10.68c-8.533 0-16.64 3.409-22.613 9.382l-158.72 158.724c-12.373 12.373-12.373 32.853 0 45.227s32.853 12.373 45.227 0l136.107-136.107 136.102 136.107c12.373 12.373 32.858 12.373 45.231 0s12.373-32.853 0-45.227l-158.72-158.724c-5.973-5.973-14.507-9.382-22.613-9.382zM736.832 10.667c-17.493 0-32 14.507-32 32v768c0 17.493 14.507 32 32 32s32-14.507 32-32v-768c0-17.493-14.080-32-32-32z" />
<glyph unicode="&#xe925;" glyph-name="arrow-circle-down" d="M512-32c-253.013 0-458.667 205.653-458.667 458.667s205.653 458.667 458.667 458.667c253.013 0 458.667-205.653 458.667-458.667s-205.653-458.667-458.667-458.667zM512 821.334c-217.6 0-394.667-177.067-394.667-394.667s177.067-394.667 394.667-394.667c217.6 0 394.667 177.067 394.667 394.667s-177.067 394.667-394.667 394.667zM512.009 298.245c-8.107 0-16.213 2.987-22.613 9.387l-150.615 150.613c-12.373 12.373-12.373 32.853 0 45.227s32.853 12.372 45.227 0l128.002-128 128 128c12.373 12.372 32.853 12.372 45.227 0s12.373-32.853 0-45.227l-150.613-150.613c-6.4-6.4-14.507-9.387-22.613-9.387z" />
<glyph unicode="&#xe926;" glyph-name="arrow-circle-left" d="M512-32c-253.013 0-458.667 205.653-458.667 458.667s205.653 458.667 458.667 458.667c253.013 0 458.667-205.653 458.667-458.667s-205.653-458.667-458.667-458.667zM512 821.334c-217.6 0-394.667-177.067-394.667-394.667s177.067-394.667 394.667-394.667c217.6 0 394.667 177.067 394.667 394.667s-177.067 394.667-394.667 394.667zM565.756 244.045c-8.107 0-16.213 2.987-22.613 9.387l-150.612 150.613c-12.373 12.373-12.373 32.853 0 45.227l150.612 150.615c12.373 12.373 32.853 12.373 45.227 0s12.373-32.853 0-45.227l-128-128.002 128-128c12.373-12.373 12.373-32.853 0-45.227-5.973-6.4-14.080-9.387-22.613-9.387z" />
<glyph unicode="&#xe927;" glyph-name="arrow-circle-right" d="M512-32c-253.013 0-458.667 205.653-458.667 458.667s205.653 458.667 458.667 458.667c253.013 0 458.667-205.653 458.667-458.667s-205.653-458.667-458.667-458.667zM512 821.334c-217.6 0-394.667-177.067-394.667-394.667s177.067-394.667 394.667-394.667c217.6 0 394.667 177.067 394.667 394.667s-177.067 394.667-394.667 394.667zM458.227 244.045c-8.107 0-16.213 2.987-22.613 9.387-12.374 12.373-12.374 32.853 0 45.227l128 128-128 128.002c-12.374 12.373-12.374 32.853 0 45.227s32.853 12.373 45.227 0l150.613-150.615c12.373-12.373 12.373-32.853 0-45.227l-150.613-150.613c-6.4-6.4-14.507-9.387-22.613-9.387z" />
<glyph unicode="&#xe928;" glyph-name="arrow-circle-up" d="M512-32c-253.013 0-458.667 205.653-458.667 458.667s205.653 458.667 458.667 458.667c253.013 0 458.667-205.653 458.667-458.667s-205.653-458.667-458.667-458.667zM512 821.334c-217.6 0-394.667-177.067-394.667-394.667s177.067-394.667 394.667-394.667c217.6 0 394.667 177.067 394.667 394.667s-177.067 394.667-394.667 394.667zM662.622 340.911c-8.107 0-16.213 2.987-22.613 9.387l-128 128-128.002-128c-12.373-12.373-32.853-12.373-45.227 0s-12.373 32.853 0 45.227l150.615 150.612c12.373 12.373 32.853 12.373 45.227 0l150.613-150.612c12.373-12.373 12.373-32.853 0-45.227-6.4-6.4-14.507-9.387-22.613-9.387z" />
<glyph unicode="&#xe929;" glyph-name="arrow-down" d="M511.962 31.996c-8.107 0-16.213 2.987-22.613 9.387l-258.985 258.987c-12.373 12.373-12.373 32.853 0 45.227s32.853 12.373 45.227 0l236.372-236.373 236.373 236.373c12.373 12.373 32.853 12.373 45.227 0s12.373-32.853 0-45.227l-258.987-258.987c-6.4-6.4-14.507-9.387-22.613-9.387zM512 39.254c-17.493 0-32 14.507-32 32v718.080c0 17.493 14.507 32 32 32s32-14.507 32-32v-718.080c0-17.493-14.507-32-32-32z" />
<glyph unicode="&#xe92a;" glyph-name="arrow-down-1" d="M512-32c-253.013 0-458.667 205.653-458.667 458.667s205.653 458.667 458.667 458.667c253.013 0 458.667-205.653 458.667-458.667s-205.653-458.667-458.667-458.667zM512 821.334c-217.6 0-394.667-177.067-394.667-394.667s177.067-394.667 394.667-394.667c217.6 0 394.667 177.067 394.667 394.667s-177.067 394.667-394.667 394.667zM512 288c-17.493 0-32 14.507-32 32v256c0 17.493 14.507 32 32 32s32-14.507 32-32v-256c0-17.493-14.507-32-32-32zM511.979 245.338c-8.107 0-16.213 2.987-22.613 9.387l-128.002 128c-12.373 12.373-12.373 32.853 0 45.227s32.853 12.373 45.227 0l105.389-105.387 105.387 105.387c12.373 12.373 32.853 12.373 45.227 0s12.373-32.853 0-45.227l-128-128c-6.4-6.4-14.507-9.387-22.613-9.387z" />
<glyph unicode="&#xe92b;" glyph-name="arrow-down-2" d="M511.979 221.863c-29.867 0-59.733 11.52-82.347 34.133l-278.185 278.185c-12.373 12.373-12.373 32.853 0 45.227s32.853 12.373 45.227 0l278.185-278.185c20.48-20.48 53.76-20.48 74.24 0l278.187 278.185c12.373 12.373 32.853 12.373 45.227 0s12.373-32.853 0-45.227l-278.187-278.185c-22.613-22.613-52.48-34.133-82.347-34.133z" />
<glyph unicode="&#xe92c;" glyph-name="arrow-down-3" d="M511.957 138.667c-60.587 0-116.052 38.4-156.159 107.947l-113.92 197.547c-40.533 69.547-45.653 136.533-15.36 189.013s91.307 81.493 171.52 81.493h227.839c80.213 0 141.227-29.013 171.52-81.493s24.747-119.893-15.36-189.44l-113.92-197.547c-40.107-69.12-95.573-107.52-156.16-107.52zM398.039 650.667c-56.747 0-97.707-17.493-116.053-49.493-18.773-32-13.227-76.373 14.933-125.013l113.92-197.547c28.159-49.067 63.999-75.947 100.692-75.947s72.533 26.88 100.693 75.947l113.92 197.547c28.16 49.067 33.707 93.44 15.36 125.44s-59.733 49.493-116.053 49.493h-227.412v-0.427z" />
<glyph unicode="&#xe92d;" glyph-name="arrow-left" d="M408.297 135.676c-8.107 0-16.213 2.987-22.613 9.387l-258.987 258.987c-12.373 12.373-12.373 32.853 0 45.227l258.987 258.986c12.373 12.373 32.853 12.373 45.229 0 12.373-12.373 12.373-32.853 0-45.227l-236.375-236.372 236.375-236.373c12.373-12.373 12.373-32.853 0-45.227-5.975-6.4-14.509-9.387-22.615-9.387zM874.662 394.667h-718.079c-17.493 0-32 14.507-32 32s14.507 32 32 32h718.079c17.493 0 32-14.507 32-32s-14.507-32-32-32z" />
<glyph unicode="&#xe92e;" glyph-name="arrow-left-1" d="M512-32c-253.013 0-458.667 205.653-458.667 458.667s205.653 458.667 458.667 458.667c253.013 0 458.667-205.653 458.667-458.667s-205.653-458.667-458.667-458.667zM512 821.334c-217.6 0-394.667-177.067-394.667-394.667s177.067-394.667 394.667-394.667c217.6 0 394.667 177.067 394.667 394.667s-177.067 394.667-394.667 394.667zM661.333 394.667h-256c-17.493 0-32 14.507-32 32s14.507 32 32 32h256c17.493 0 32-14.507 32-32s-14.507-32-32-32zM490.645 266.671c-8.107 0-16.213 2.987-22.613 9.387l-128.002 128c-12.373 12.373-12.373 32.853 0 45.227l128.002 127.998c12.373 12.373 32.853 12.373 45.227 0s12.373-32.853 0-45.227l-105.389-105.385 105.389-105.387c12.373-12.373 12.373-32.853 0-45.227-6.4-6.4-14.507-9.387-22.613-9.387z" />
<glyph unicode="&#xe92f;" glyph-name="arrow-left-2" d="M639.97 56.747c-8.107 0-16.213 2.987-22.613 9.387l-278.187 278.187c-45.227 45.227-45.227 119.467 0 164.693l278.187 278.186c12.373 12.373 32.853 12.373 45.227 0s12.373-32.853 0-45.227l-278.187-278.186c-20.48-20.48-20.48-53.76 0-74.24l278.187-278.187c12.373-12.373 12.373-32.853 0-45.227-6.4-5.973-14.507-9.387-22.613-9.387z" />
<glyph unicode="&#xe930;" glyph-name="arrow-left-3" d="M644.267 121.609c-35.84 0-75.093 11.52-114.773 34.56l-197.547 113.92c-69.547 40.533-107.947 96-107.947 156.587s38.4 116.053 107.947 156.16l197.547 113.92c69.547 40.107 136.533 45.653 189.44 15.36 52.48-30.293 81.493-91.307 81.493-171.52v-227.84c0-80.213-29.013-141.227-81.493-171.52-22.613-13.227-47.787-19.627-74.667-19.627zM644.267 667.316c-24.747 0-52.907-8.533-82.773-26.027l-197.547-113.92c-49.067-28.16-75.947-64-75.947-100.693s26.88-72.533 75.947-100.693l197.547-113.92c49.067-28.16 93.44-33.707 125.44-15.36s49.493 59.733 49.493 116.053v227.84c0 56.32-17.493 97.707-49.493 116.053-12.8 7.253-27.307 10.667-42.667 10.667z" />
<glyph unicode="&#xe931;" glyph-name="arrow-right" d="M615.642 135.676c-8.107 0-16.213 2.987-22.613 9.387-12.373 12.373-12.373 32.853 0 45.227l236.373 236.373-236.373 236.372c-12.373 12.373-12.373 32.853 0 45.227s32.853 12.373 45.227 0l258.987-258.986c12.373-12.373 12.373-32.853 0-45.227l-258.987-258.987c-6.4-6.4-14.507-9.387-22.613-9.387zM867.413 394.667h-718.080c-17.493 0-32 14.507-32 32s14.507 32 32 32h718.080c17.493 0 32-14.507 32-32s-14.507-32-32-32z" />
<glyph unicode="&#xe932;" glyph-name="arrow-right-1" d="M512-32c-253.013 0-458.667 205.653-458.667 458.667s205.653 458.667 458.667 458.667c253.013 0 458.667-205.653 458.667-458.667s-205.653-458.667-458.667-458.667zM512 821.334c-217.6 0-394.667-177.067-394.667-394.667s177.067-394.667 394.667-394.667c217.6 0 394.667 177.067 394.667 394.667s-177.067 394.667-394.667 394.667zM618.667 394.667h-256c-17.493 0-32 14.507-32 32s14.507 32 32 32h256c17.493 0 32-14.507 32-32s-14.507-32-32-32zM533.312 266.671c-8.107 0-16.213 2.987-22.613 9.387-12.373 12.373-12.373 32.853 0 45.227l105.387 105.387-105.387 105.385c-12.373 12.373-12.373 32.853 0 45.227s32.853 12.373 45.227 0l128-127.998c12.373-12.373 12.373-32.853 0-45.227l-128-128c-6.4-6.4-14.507-9.387-22.613-9.387z" />
<glyph unicode="&#xe933;" glyph-name="arrow-right-2" d="M380.143 56.747c-8.107 0-16.213 2.987-22.613 9.387-12.373 12.373-12.373 32.853 0 45.227l278.186 278.187c20.48 20.48 20.48 53.76 0 74.24l-278.186 278.186c-12.373 12.373-12.373 32.853 0 45.227s32.853 12.373 45.227 0l278.186-278.186c21.76-21.76 34.133-51.2 34.133-82.347s-11.947-60.587-34.133-82.347l-278.186-278.187c-6.4-5.973-14.507-9.387-22.613-9.387z" />
<glyph unicode="&#xe934;" glyph-name="arrow-right-3" d="M379.733 121.609c-26.88 0-52.053 6.4-74.24 19.2-52.48 30.293-81.493 91.307-81.493 171.52v228.267c0 80.213 29.013 141.227 81.493 171.52s119.467 24.747 189.44-15.36l197.547-113.92c69.547-40.107 107.947-95.573 107.947-156.16s-38.4-116.053-107.947-156.16l-197.547-113.92c-40.107-23.467-79.36-34.987-115.2-34.987zM379.733 667.316c-15.787 0-30.293-3.413-42.667-10.667-31.573-18.347-49.067-59.307-49.067-116.053v-227.84c0-56.32 17.493-97.707 49.493-116.053s76.373-12.8 125.44 15.36l197.547 113.92c49.067 28.16 75.947 64 75.947 100.693s-26.88 72.533-75.947 100.693l-197.547 113.92c-30.293 17.493-58.453 26.027-83.2 26.027z" />
<glyph unicode="&#xe935;" glyph-name="arrow-square" d="M517.999 263.689c-17.493 0-32 14.507-32 32v83.627c0 125.013 101.547 226.56 226.987 226.56h83.627c17.493 0 32-14.507 32-32s-14.507-32-32-32h-83.627c-89.6 0-162.987-72.96-162.987-162.56v-83.627c0-17.92-14.507-32-32-32zM518.020 170.663c-17.493 0-32 14.507-32 32v176.213c0 89.6-72.959 162.562-162.559 162.562h-83.628c-17.493 0-32 14.507-32 32s14.507 32 32 32h83.628c125.012 0 226.559-101.548 226.559-226.562v-176.213c0-17.493-14.507-32-32-32zM304.611 465.071c-8.107 0-16.215 2.987-22.615 9.387l-76.799 76.798c-12.373 12.373-12.373 32.853 0 45.227l76.799 76.8c12.373 12.373 32.853 12.373 45.227 0s12.373-32.853 0-45.227l-54.185-54.187 54.185-54.187c12.373-12.371 12.373-32.851 0-45.225-6.4-6.4-14.505-9.387-22.612-9.387zM719.39 465.071c-8.107 0-16.209 2.987-22.609 9.387-12.373 12.373-12.373 32.853 0 45.225l54.182 54.187-54.182 54.187c-12.373 12.373-12.373 32.853 0 45.227s32.853 12.373 45.227 0l76.8-76.8c12.373-12.373 12.373-32.853 0-45.227l-76.8-76.798c-5.973-6.4-14.511-9.387-22.618-9.387zM640-32h-256c-231.68 0-330.667 98.987-330.667 330.667v256c0 231.68 98.987 330.667 330.667 330.667h256c231.68 0 330.667-98.987 330.667-330.667v-256c0-231.68-98.987-330.667-330.667-330.667zM384 821.334c-196.693 0-266.667-69.973-266.667-266.667v-256c0-196.693 69.973-266.667 266.667-266.667h256c196.693 0 266.667 69.973 266.667 266.667v256c0 196.693-69.973 266.667-266.667 266.667h-256z" />
<glyph unicode="&#xe936;" glyph-name="arrow-square-down" d="M640-32h-256c-231.68 0-330.667 98.987-330.667 330.667v256c0 231.68 98.987 330.667 330.667 330.667h256c231.68 0 330.667-98.987 330.667-330.667v-256c0-231.68-98.987-330.667-330.667-330.667zM384 821.334c-196.693 0-266.667-69.973-266.667-266.667v-256c0-196.693 69.973-266.667 266.667-266.667h256c196.693 0 266.667 69.973 266.667 266.667v256c0 196.693-69.973 266.667-266.667 266.667h-256zM512.009 302.516c-8.107 0-16.213 2.987-22.613 9.387l-150.615 150.613c-12.373 12.373-12.373 32.853 0 45.227s32.853 12.372 45.227 0l128.002-128 128 128c12.373 12.372 32.853 12.372 45.227 0s12.373-32.853 0-45.227l-150.613-150.613c-6.4-6.4-14.507-9.387-22.613-9.387z" />
<glyph unicode="&#xe937;" glyph-name="arrow-square-left" d="M640-32h-256c-231.68 0-330.667 98.987-330.667 330.667v256c0 231.68 98.987 330.667 330.667 330.667h256c231.68 0 330.667-98.987 330.667-330.667v-256c0-231.68-98.987-330.667-330.667-330.667zM384 821.334c-196.693 0-266.667-69.973-266.667-266.667v-256c0-196.693 69.973-266.667 266.667-266.667h256c196.693 0 266.667 69.973 266.667 266.667v256c0 196.693-69.973 266.667-266.667 266.667h-256zM565.756 244.045c-8.107 0-16.213 2.987-22.613 9.387l-150.612 150.613c-12.373 12.373-12.373 32.853 0 45.227l150.612 150.615c12.373 12.373 32.853 12.373 45.227 0s12.373-32.853 0-45.227l-128-128.002 128-128c12.373-12.373 12.373-32.853 0-45.227-5.973-6.4-14.080-9.387-22.613-9.387z" />
<glyph unicode="&#xe938;" glyph-name="arrow-square-right" d="M640-32h-256c-231.68 0-330.667 98.987-330.667 330.667v256c0 231.68 98.987 330.667 330.667 330.667h256c231.68 0 330.667-98.987 330.667-330.667v-256c0-231.68-98.987-330.667-330.667-330.667zM384 821.334c-196.693 0-266.667-69.973-266.667-266.667v-256c0-196.693 69.973-266.667 266.667-266.667h256c196.693 0 266.667 69.973 266.667 266.667v256c0 196.693-69.973 266.667-266.667 266.667h-256zM458.227 244.045c-8.107 0-16.213 2.987-22.613 9.387-12.374 12.373-12.374 32.853 0 45.227l128 128-128 128.002c-12.374 12.373-12.374 32.853 0 45.227s32.853 12.373 45.227 0l150.613-150.615c12.373-12.373 12.373-32.853 0-45.227l-150.613-150.613c-6.4-6.4-14.507-9.387-22.613-9.387z" />
<glyph unicode="&#xe939;" glyph-name="arrow-square-up" d="M640-32h-256c-231.68 0-330.667 98.987-330.667 330.667v256c0 231.68 98.987 330.667 330.667 330.667h256c231.68 0 330.667-98.987 330.667-330.667v-256c0-231.68-98.987-330.667-330.667-330.667zM384 821.334c-196.693 0-266.667-69.973-266.667-266.667v-256c0-196.693 69.973-266.667 266.667-266.667h256c196.693 0 266.667 69.973 266.667 266.667v256c0 196.693-69.973 266.667-266.667 266.667h-256zM662.622 332.369c-8.107 0-16.213 2.987-22.613 9.387l-128 128-128.002-128c-12.373-12.373-32.853-12.373-45.227 0s-12.373 32.853 0 45.227l150.615 150.612c12.373 12.373 32.853 12.373 45.227 0l150.613-150.612c12.373-12.373 12.373-32.853 0-45.227-6.4-6.4-14.507-9.387-22.613-9.387z" />
<glyph unicode="&#xe93a;" glyph-name="arrow-swap" d="M384.403 31.992c-8.107 0-16.213 2.987-22.613 9.387l-213.76 213.76c-12.373 12.373-12.373 32.853 0 45.227s32.853 12.373 45.227 0l213.76-213.76c12.373-12.373 12.373-32.853 0-45.227-6.4-5.973-14.507-9.387-22.613-9.387zM384.417 32c-17.493 0-32 14.507-32 32v725.333c0 17.493 14.507 32 32 32s32-14.507 32-32v-725.333c0-17.493-14.507-32-32-32zM853.739 543.576c-8.107 0-16.213 2.987-22.613 9.387l-213.76 213.76c-12.373 12.373-12.373 32.853 0 45.227s32.853 12.373 45.227 0l213.76-213.76c12.373-12.373 12.373-32.853 0-45.227-6.4-6.4-14.507-9.387-22.613-9.387zM639.582 32c-17.493 0-32 14.507-32 32v725.333c0 17.493 14.507 32 32 32s32-14.507 32-32v-725.333c0-17.493-14.080-32-32-32z" />
<glyph unicode="&#xe93b;" glyph-name="arrow-swap-horizontal" d="M660.894 52.911c-8.107 0-16.213 2.987-22.613 9.387-12.373 12.373-12.373 32.853 0 45.227l213.76 213.76c12.373 12.373 32.853 12.373 45.227 0s12.373-32.853 0-45.227l-213.76-213.76c-6.4-5.973-14.507-9.387-22.613-9.387zM874.667 267.085h-725.333c-17.493 0-32 14.507-32 32s14.507 32 32 32h725.333c17.493 0 32-14.507 32-32s-14.507-32-32-32zM149.31 522.243c-8.107 0-16.213 2.987-22.613 9.387-12.373 12.373-12.373 32.853 0 45.227l213.76 213.76c12.373 12.373 32.853 12.373 45.227 0s12.373-32.853 0-45.227l-213.76-213.76c-5.973-5.973-14.507-9.387-22.613-9.387zM874.667 522.25h-725.333c-17.493 0-32 14.507-32 32s14.507 32 32 32h725.333c17.493 0 32-14.507 32-32s-14.507-32-32-32z" />
<glyph unicode="&#xe93c;" glyph-name="arrow-up" d="M770.948 498.351c-8.107 0-16.213 2.987-22.613 9.387l-236.373 236.372-236.372-236.372c-12.373-12.373-32.853-12.373-45.227 0-12.373 12.372-12.373 32.852 0 45.225l258.985 258.987c12.373 12.373 32.853 12.373 45.227 0l258.987-258.987c12.373-12.373 12.373-32.853 0-45.225-5.973-6.4-14.507-9.387-22.613-9.387zM512 32.005c-17.493 0-32 14.507-32 32v718.079c0 17.493 14.507 32 32 32s32-14.507 32-32v-718.079c0-17.493-14.507-32-32-32z" />
<glyph unicode="&#xe93d;" glyph-name="arrow-up-1" d="M512-32c-253.013 0-458.667 205.653-458.667 458.667s205.653 458.667 458.667 458.667c253.013 0 458.667-205.653 458.667-458.667s-205.653-458.667-458.667-458.667zM512 821.334c-217.6 0-394.667-177.067-394.667-394.667s177.067-394.667 394.667-394.667c217.6 0 394.667 177.067 394.667 394.667s-177.067 394.667-394.667 394.667zM512 245.334c-17.493 0-32 14.507-32 32v256c0 17.493 14.507 32 32 32s32-14.507 32-32v-256c0-17.493-14.507-32-32-32zM639.979 416.005c-8.107 0-16.213 2.987-22.613 9.387l-105.387 105.385-105.389-105.385c-12.373-12.373-32.853-12.373-45.227 0s-12.373 32.853 0 45.227l128.002 127.998c12.373 12.373 32.853 12.373 45.227 0l128-127.998c12.373-12.373 12.373-32.853 0-45.227-6.4-6.4-14.507-9.387-22.613-9.387z" />
<glyph unicode="&#xe93e;" glyph-name="arrow-up-2" d="M849.899 264.529c-8.107 0-16.213 2.987-22.613 9.387l-278.187 278.188c-20.48 20.48-53.76 20.48-74.24 0l-278.185-278.188c-12.373-12.373-32.853-12.373-45.227 0s-12.373 32.853 0 45.227l278.185 278.188c45.227 45.227 119.040 45.227 164.693 0l278.187-278.188c12.373-12.373 12.373-32.853 0-45.227-6.4-5.973-14.507-9.387-22.613-9.387z" />
<glyph unicode="&#xe93f;" glyph-name="arrow-up-3" d="M625.911 138.667h-227.84c-80.213 0-141.227 29.013-171.52 81.493s-24.747 119.893 15.36 189.44l113.92 197.547c40.107 69.12 95.573 107.52 156.16 107.52s116.053-38.4 156.16-107.947l113.92-197.547c40.107-69.547 45.653-136.96 15.36-189.44-30.293-52.053-91.307-81.067-171.52-81.067zM511.991 650.667c-36.693 0-72.533-26.88-100.693-75.947l-113.92-197.547c-28.16-49.067-33.707-93.44-15.36-125.44s59.733-49.493 116.053-49.493h227.84c56.32 0 97.707 17.493 116.053 49.493s12.8 76.373-15.36 125.44l-113.92 197.547c-28.16 49.067-64 75.947-100.693 75.947z" />
<glyph unicode="&#xe940;" glyph-name="attach-circle" d="M520.525 197.125c-29.867 0-60.16 11.52-82.773 34.133-22.188 22.187-34.561 51.627-34.561 82.773s12.373 61.013 34.561 82.773l60.156 60.16c12.373 12.373 32.853 12.373 45.227 0s12.373-32.853 0-45.227l-60.156-60.16c-10.24-10.24-15.787-23.467-15.787-37.547s5.547-27.733 15.787-37.547c20.907-20.907 54.613-20.907 75.52 0l94.72 94.72c54.187 54.187 54.187 142.078 0 196.265s-142.080 54.187-196.267 0l-103.256-103.252c-21.76-21.76-33.705-50.347-33.705-80.64s11.945-59.307 33.705-80.64c12.373-12.373 12.373-32.853 0-45.227s-32.853-12.373-45.226 0c-33.707 33.707-52.052 78.507-52.052 126.293s18.345 92.587 52.052 126.293l103.255 103.252c78.934 78.933 207.788 78.933 286.721 0s78.933-207.786 0-286.719l-94.72-94.72c-23.040-23.467-52.907-34.987-83.2-34.987zM512-32c-253.013 0-458.667 205.653-458.667 458.667s205.653 458.667 458.667 458.667c253.013 0 458.667-205.653 458.667-458.667s-205.653-458.667-458.667-458.667zM512 821.334c-217.6 0-394.667-177.067-394.667-394.667s177.067-394.667 394.667-394.667c217.6 0 394.667 177.067 394.667 394.667s-177.067 394.667-394.667 394.667z" />
<glyph unicode="&#xe941;" glyph-name="attach-square" d="M520.525 197.125c-29.867 0-60.16 11.52-82.773 34.133-22.188 22.187-34.561 51.627-34.561 82.773s12.373 61.013 34.561 82.773l60.156 60.16c12.373 12.373 32.853 12.373 45.227 0s12.373-32.853 0-45.227l-60.156-60.16c-10.24-10.24-15.787-23.467-15.787-37.547s5.547-27.733 15.787-37.547c20.907-20.907 54.613-20.907 75.52 0l94.72 94.72c54.187 54.187 54.187 142.078 0 196.265s-142.080 54.187-196.267 0l-103.256-103.252c-21.76-21.76-33.705-50.347-33.705-80.64s11.945-59.307 33.705-80.64c12.373-12.373 12.373-32.853 0-45.227s-32.853-12.373-45.226 0c-33.707 33.707-52.052 78.507-52.052 126.293s18.345 92.587 52.052 126.293l103.255 103.252c78.934 78.933 207.788 78.933 286.721 0s78.933-207.786 0-286.719l-94.72-94.72c-23.040-23.467-52.907-34.987-83.2-34.987zM640-32h-256c-231.68 0-330.667 98.987-330.667 330.667v256c0 231.68 98.987 330.667 330.667 330.667h256c231.68 0 330.667-98.987 330.667-330.667v-256c0-231.68-98.987-330.667-330.667-330.667zM384 821.334c-196.693 0-266.667-69.973-266.667-266.667v-256c0-196.693 69.973-266.667 266.667-266.667h256c196.693 0 266.667 69.973 266.667 266.667v256c0 196.693-69.973 266.667-266.667 266.667h-256z" />
<glyph unicode="&#xe942;" glyph-name="audio-square" d="M640-32h-256c-231.68 0-330.667 98.987-330.667 330.667v256c0 231.68 98.987 330.667 330.667 330.667h256c231.68 0 330.667-98.987 330.667-330.667v-256c0-231.68-98.987-330.667-330.667-330.667zM384 821.334c-196.693 0-266.667-69.973-266.667-266.667v-256c0-196.693 69.973-266.667 266.667-266.667h256c196.693 0 266.667 69.973 266.667 266.667v256c0 196.693-69.973 266.667-266.667 266.667h-256zM410.453 168.534c-67.413 0-122.453 55.036-122.453 122.449s55.040 122.453 122.453 122.453c67.413 0 122.453-55.040 122.453-122.453s-55.040-122.449-122.453-122.449zM410.453 349.009c-32 0-58.453-26.027-58.453-58.453 0-32 26.027-58.453 58.453-58.453 32 0 58.453 26.027 58.453 58.453s-26.453 58.453-58.453 58.453zM500.915 258.987c-17.493 0-32 14.507-32 32v316.159c0 17.493 14.507 32 32 32s32-14.507 32-32v-316.159c0-17.92-14.507-32-32-32zM662.199 451c-8.96 0-18.351 1.707-27.738 4.693l-99.836 33.28c-37.547 12.373-65.711 51.625-65.711 91.305v26.453c0 26.88 11.098 50.347 30.724 64.427s45.222 17.494 70.822 8.961l99.844-33.281c37.547-12.373 65.702-51.625 65.702-91.305v-26.453c0-26.88-11.089-50.347-30.716-64.427-12.373-8.96-27.307-13.653-43.093-13.653zM542.306 620.812c-2.133 0-4.267-0.425-5.547-1.279-2.56-1.707-4.271-6.402-4.271-12.375v-26.453c0-11.947 11.093-26.879 22.187-30.719l99.844-33.281c5.547-1.707 10.667-1.707 13.227 0s4.262 6.402 4.262 12.375v26.453c0 11.947-11.093 26.879-22.187 30.719l-99.836 33.281c-2.56 0.853-5.547 1.279-7.68 1.279z" />
<glyph unicode="&#xe943;" glyph-name="autobrightness" d="M512.388-31.577c-26.88 0-53.333 8.96-74.24 26.88l-67.412 57.6c-6.827 5.973-23.893 11.947-32.853 11.947h-74.667c-63.147 0-114.347 51.2-114.347 114.347v72.96c0 8.96-5.973 26.027-11.52 32.427l-58.027 68.267c-34.987 41.387-34.987 106.24 0 148.053l58.027 68.268c5.547 6.4 11.52 23.467 11.52 32.427v72.533c0 63.147 51.2 114.347 114.347 114.347h73.813c8.96 0 25.6 6.4 32.853 12.373l67.412 57.6c41.813 35.413 107.093 35.413 148.907 0l67.413-57.6c6.827-5.973 24.32-11.947 33.28-11.947h72.533c63.147 0 114.347-51.2 114.347-114.347v-72.533c0-8.96 6.4-25.6 12.373-32.853l57.6-67.415c35.84-42.24 35.413-107.52 0-148.907l-57.6-67.413c-5.973-7.253-11.947-23.893-11.947-32.853v-72.533c0-63.147-51.2-114.347-114.347-114.347h-72.533c-8.96 0-25.6-6.4-33.28-12.373l-67.413-57.6c-20.907-18.347-47.787-27.307-74.24-27.307zM263.217 724.477c-27.733 0-50.347-22.613-50.347-50.347v-72.533c0-24.32-11.093-55.040-26.88-73.813l-58.027-68.268c-14.507-17.493-14.507-48.213 0-65.28l57.6-67.84c15.36-17.493 26.88-49.493 26.88-73.813v-72.96c0-27.733 22.613-50.347 50.347-50.347h74.24c23.893 0 55.467-11.52 74.24-27.307l67.838-58.027c17.493-14.933 47.787-14.933 65.707 0l67.413 57.6c19.2 16.213 50.347 27.307 74.24 27.307h72.533c27.733 0 50.347 22.613 50.347 50.347v72.533c0 23.893 11.52 55.040 27.307 74.24l58.027 67.84c14.933 17.493 14.933 48.213 0 65.707l-57.6 67.415c-16.213 19.2-27.307 50.347-27.307 74.24v72.96c0 27.733-22.613 50.347-50.347 50.347h-72.533c-24.32 0-55.893 11.52-74.667 27.307l-67.84 58.027c-17.493 14.933-47.787 14.933-65.707 0l-66.985-58.027c-19.2-15.787-50.347-27.307-74.667-27.307h-73.813zM631.915 245.76l-119.893 270.080-119.891-270.080-58.88 26.027 149.331 335.786h58.88l149.333-335.786-58.88-26.027zM586.667 338.769h-149.333c-17.493 0-32 14.507-32 32s14.507 32 32 32h149.333c17.493 0 32-14.507 32-32s-14.507-32-32-32z" />
<glyph unicode="&#xe944;" glyph-name="avax" d="M392.126 212.911h-116.906c-18.347 0-35.415 9.813-44.375 25.6s-8.96 35.413 0 51.627l238.936 410.026c8.533 14.933 24.316 24.32 41.382 25.6s33.711-6.827 43.951-20.48l66.987-89.173c26.88-35.84 29.013-85.333 5.12-123.733l-142.511-228.267c-20.053-32-54.609-51.2-92.584-51.2zM296.98 276.911h94.719c15.787 0 30.294 8.107 38.402 21.333l142.502 228.266c9.813 15.787 8.964 36.267-2.129 51.2l-55.467 73.813-218.028-374.612zM748.809 212.911h-163.84c-18.347 0-35.413 9.813-44.8 26.027-8.96 16.213-8.96 35.84 0.427 51.627l81.92 136.533c18.773 31.147 69.12 31.147 87.893 0l81.92-136.533c9.387-15.787 9.813-35.84 0.427-51.627-8.107-15.787-25.6-26.027-43.947-26.027zM607.582 276.911h119.040l-59.733 99.413-59.307-99.413zM512-32c-253.013 0-458.667 205.653-458.667 458.667s205.653 458.667 458.667 458.667c253.013 0 458.667-205.653 458.667-458.667s-205.653-458.667-458.667-458.667zM512 821.334c-217.6 0-394.667-177.067-394.667-394.667s177.067-394.667 394.667-394.667c217.6 0 394.667 177.067 394.667 394.667s-177.067 394.667-394.667 394.667z" />
<glyph unicode="&#xe945;" glyph-name="award" d="M511.991-32.004c-25.6 0-50.773 5.973-71.253 17.493l-201.815 116.48c-83.627 56.32-89.173 66.56-89.173 154.88v211.627c0 88.322 5.547 98.562 87.467 153.602l203.948 117.76c40.533 23.467 101.547 23.467 142.080 0l201.813-116.48c83.627-56.32 89.173-66.56 89.173-154.882v-211.627c0-88.32-5.547-98.56-87.467-153.6l-203.947-117.76c-20.053-11.947-45.653-17.493-70.827-17.493zM511.991 693.331c-14.507 0-29.013-2.987-39.253-8.96l-201.815-116.48c-57.173-38.827-57.173-38.827-57.173-99.415v-211.627c0-60.587 0-60.587 59.307-100.693l200.108-115.2c20.48-11.947 57.6-11.947 78.080 0l201.813 116.48c57.173 38.827 57.173 38.827 57.173 99.413v211.627c0 60.588 0 60.588-59.307 100.695l-200.107 115.2c-9.813 5.973-24.32 8.96-38.827 8.96zM746.667 581.12c-17.493 0-32 14.507-32 32v112.213c0 67.413-28.587 96-96 96h-213.333c-67.413 0-96-28.587-96-96v-109.227c0-17.493-14.507-32-32-32s-32 14.080-32 32v109.227c0 103.253 56.747 160 160 160h213.333c103.253 0 160-56.747 160-160v-112.213c0-17.493-14.507-32-32-32zM581.555 186.449c-8.96 0-18.347 1.707-27.733 5.547l-41.813 16.213-41.813-16.64c-22.613-8.96-45.652-6.827-62.718 5.547s-26.027 33.707-24.747 58.027l2.56 44.8-28.587 34.56c-15.36 19.2-20.48 41.387-13.653 61.867 6.4 20.053 23.893 35.413 47.36 41.387l43.518 11.093 24.32 37.973c26.027 40.959 81.92 40.959 107.947 0l24.32-37.973 43.52-11.093c23.467-5.973 40.96-21.333 47.36-41.387s1.28-42.667-14.080-61.44l-28.587-34.56 2.56-44.8c1.28-24.32-7.68-45.227-24.747-58.027-10.24-7.253-22.187-11.093-34.987-11.093zM406.197 375.463l28.585-34.56c9.813-11.52 15.36-29.867 14.507-44.8l-2.56-44.8 41.813 16.64c14.080 5.547 32.853 5.547 46.933 0l41.813-16.64-2.56 44.8c-0.853 14.933 4.693 32.853 14.507 44.8l28.587 34.56-43.52 11.093c-14.507 3.84-29.867 14.933-37.973 27.307l-23.893 37.547-24.32-37.547c-8.107-12.8-23.467-23.893-37.973-27.733l-43.945-10.667z" />
<glyph unicode="&#xe946;" glyph-name="back-square" d="M640-32h-256c-231.68 0-330.667 98.987-330.667 330.667v256c0 231.68 98.987 330.667 330.667 330.667h256c231.68 0 330.667-98.987 330.667-330.667v-256c0-231.68-98.987-330.667-330.667-330.667zM384 821.334c-196.693 0-266.667-69.973-266.667-266.667v-256c0-196.693 69.973-266.667 266.667-266.667h256c196.693 0 266.667 69.973 266.667 266.667v256c0 196.693-69.973 266.667-266.667 266.667h-256zM593.937 250.466h-209.92c-17.493 0-32 14.507-32 32s14.507 32 32 32h209.92c54.613 0 99.413 44.373 99.413 99.413s-44.373 99.412-99.413 99.412h-288.854c-17.493 0-32 14.507-32 32s14.507 32 32 32h288.854c90.027 0 163.413-73.385 163.413-163.412s-73.387-163.413-163.413-163.413zM365.63 447.156c-8.107 0-16.213 2.987-22.613 9.387l-66.987 66.985c-12.373 12.373-12.373 32.854 0 45.227l66.987 66.987c12.373 12.373 32.853 12.373 45.227 0s12.373-32.854 0-45.227l-44.373-44.373 44.373-44.372c12.373-12.373 12.373-32.853 0-45.227-5.973-5.973-14.080-9.387-22.613-9.387z" />
<glyph unicode="&#xe947;" glyph-name="backward" d="M855.467 155.303c-19.627 0-39.68 5.12-57.6 15.787l-270.507 156.16c-12.373 7.253-22.187 15.787-29.44 25.173-4.693 5.547-7.253 12.8-7.253 20.053v109.227c0 7.253 2.56 14.507 7.253 20.053 7.68 9.387 17.493 17.921 29.44 24.748l270.933 156.587c35.84 20.907 78.933 20.907 115.2 0s57.6-58.026 57.6-99.84v-312.322c0-41.813-21.333-78.933-57.6-99.84-18.347-10.667-38.4-15.787-58.027-15.787zM554.24 385.703c1.707-1.28 3.413-2.56 5.12-3.413l270.080-155.733c16.213-9.387 35.413-9.387 51.2 0 16.213 9.387 25.6 26.027 25.6 44.373v312.322c0 18.347-9.387 34.985-25.6 44.372s-34.987 9.387-51.2 0l-270.507-156.161c-1.707-0.853-3.413-2.133-4.693-3.413v-82.347zM439.040 155.303c-19.626 0-39.68 5.12-57.6 15.787l-270.506 156.16c-35.84 20.907-57.6 58.027-57.6 99.84s21.334 78.933 57.6 99.842l270.506 156.16c35.84 20.907 78.933 20.907 115.2 0s57.6-58.026 57.6-99.84v-312.322c0-41.813-21.333-78.933-57.6-99.84-17.92-10.667-37.973-15.787-57.6-15.787zM439.040 634.024c-8.96 0-17.493-2.132-25.6-6.826l-270.506-156.162c-16.213-9.387-25.6-26.027-25.6-44.373s9.387-34.987 25.6-44.373l270.506-156.16c16.213-9.387 35.413-9.387 51.2 0 16.213 9.387 25.6 25.6 25.6 44.373v312.322c0 18.347-9.387 34.987-25.6 44.373-8.107 4.693-16.64 6.826-25.6 6.826z" />
<glyph unicode="&#xe948;" glyph-name="backward-5-seconds" d="M528.239 216.734h-97.707c-17.493 0-32 14.507-32 32s14.507 32 32 32h97.707c18.347 0 33.28 14.933 33.28 33.28s-14.933 33.28-33.28 33.28h-97.707c-10.24 0-20.052 5.12-26.026 13.227s-7.68 19.2-4.267 29.013l32.426 97.707c4.267 13.227 16.64 21.76 30.293 21.76h130.56c17.493 0 32-14.507 32-32s-14.507-32-32-32h-107.52l-11.093-33.707h53.333c53.76 0 97.28-43.52 97.28-97.28s-43.52-97.28-97.28-97.28zM427.52 715.95c-7.255 0-14.081 2.132-20.055 7.252-13.653 11.093-15.786 31.146-5.12 44.8l84.481 105.385c11.093 13.653 31.147 15.789 44.8 5.123 13.653-11.093 15.787-31.149 5.12-44.802l-84.48-105.385c-5.973-8.107-15.36-12.372-24.747-12.372zM511.974-31.991c-226.56 0-411.308 184.324-411.308 411.311 0 88.32 28.587 173.225 83.2 245.759 10.667 14.080 30.72 17.065 44.8 6.398s17.068-30.72 6.401-44.8c-46.080-61.44-70.401-133.117-70.401-207.357 0-191.573 155.734-347.311 347.308-347.311s347.307 155.738 347.307 347.311c0 191.572-155.733 347.305-347.307 347.305-24.747 0-49.92-2.988-77.227-9.388-17.067-3.84-34.56 6.827-38.4 23.893s6.827 34.561 23.893 38.401c32 7.253 62.293 11.094 91.733 11.094 226.56 0 411.307-184.32 411.307-411.305 0-226.987-184.747-411.311-411.307-411.311z" />
<glyph unicode="&#xe949;" glyph-name="backward-10-seconds" d="M407.021 227.409c-17.493 0-32 14.507-32 32v144.64l-8.107-8.96c-11.947-13.227-32-14.080-45.227-2.56-13.227 11.947-14.080 32-2.56 45.227l64 71.253c8.96 9.814 23.040 13.228 35.413 8.535s20.478-16.641 20.478-29.868v-228.267c0-17.92-14.078-32-31.998-32zM427.52 715.95c-7.255 0-14.081 2.132-20.055 7.252-13.653 11.093-15.786 31.146-5.12 44.8l84.481 105.385c11.093 13.653 31.147 15.789 44.8 5.123s15.787-31.149 5.12-44.802l-84.48-105.385c-5.973-8.107-15.36-12.372-24.747-12.372zM511.974-31.991c-226.56 0-411.308 184.324-411.308 411.311 0 88.32 28.587 173.225 83.2 245.759 10.667 14.080 30.72 17.065 44.8 6.398s17.068-30.72 6.401-44.8c-46.080-61.44-70.401-133.117-70.401-207.357 0-191.573 155.734-347.311 347.308-347.311s347.307 155.738 347.307 347.311c0 191.572-155.733 347.305-347.307 347.305-24.747 0-49.92-2.988-77.227-9.388-17.067-3.84-34.56 6.827-38.4 23.893s6.827 34.561 23.893 38.401c32 7.253 62.293 11.094 91.733 11.094 226.56 0 411.307-184.32 411.307-411.305 0-226.987-184.747-411.311-411.307-411.311zM597.333 227.401c-64.853 0-117.333 52.48-117.333 117.333v57.6c0 64.853 52.48 117.333 117.333 117.333s117.333-52.48 117.333-117.333v-57.6c0-64.853-52.48-117.333-117.333-117.333zM597.333 455.241c-29.44 0-53.333-23.893-53.333-53.333v-57.6c0-29.44 23.893-53.333 53.333-53.333s53.333 23.893 53.333 53.333v57.6c0 29.44-23.893 53.333-53.333 53.333z" />
<glyph unicode="&#xe94a;" glyph-name="backward-15-seconds" d="M615.654 216.734h-97.702c-17.493 0-32 14.507-32 32s14.507 32 32 32h97.702c18.347 0 33.284 14.933 33.284 33.28s-14.938 33.28-33.284 33.28h-97.702c-10.24 0-20.053 5.12-26.027 13.227s-7.684 19.2-4.271 29.013l32.427 97.707c4.267 13.227 16.644 21.76 30.298 21.76h130.56c17.493 0 32-14.507 32-32s-14.507-32-32-32h-107.524l-11.093-33.707h53.333c53.76 0 97.284-43.52 97.284-97.28s-43.951-97.28-97.284-97.28zM407.021 216.756c-17.493 0-32 14.507-32 32v144.636l-8.107-9.382c-11.947-13.227-32-14.080-45.227-2.56-13.227 11.947-14.080 32-2.56 45.227l64 71.253c8.96 9.813 23.041 13.227 35.414 8.533 12.375-4.693 20.477-16.64 20.477-29.867v-228.267c0-17.493-14.078-31.573-31.998-31.573zM427.52 715.95c-7.253 0-14.081 2.132-20.055 7.252-13.653 11.093-15.786 31.146-5.12 44.8l84.481 105.385c11.093 13.653 31.147 15.789 44.8 5.123s15.787-31.149 5.12-44.802l-84.48-105.385c-5.973-8.107-15.36-12.372-24.747-12.372zM511.974-31.991c-226.56 0-411.308 184.324-411.308 411.311 0 88.32 28.587 173.225 83.2 245.759 10.667 14.080 30.72 17.065 44.8 6.398s17.068-30.72 6.401-44.8c-46.080-61.44-70.401-133.117-70.401-207.357 0-191.573 155.734-347.311 347.308-347.311s347.307 155.738 347.307 347.311c0 191.572-155.733 347.305-347.307 347.305-24.747 0-49.92-2.988-77.227-9.388-17.494-3.84-34.561 6.827-38.401 23.893s6.827 34.561 23.893 38.401c32.001 7.253 62.295 11.094 91.735 11.094 226.56 0 411.307-184.32 411.307-411.305 0-226.987-184.747-411.311-411.307-411.311z" />
<glyph unicode="&#xe94b;" glyph-name="backward-item" d="M804.267 437.334h-115.2c-113.493 0-166.4 52.907-166.4 166.4v115.201c0 113.493 52.907 166.4 166.4 166.4h115.2c113.493 0 166.4-52.906 166.4-166.4v-115.201c0-113.493-52.907-166.4-166.4-166.4zM689.067 821.334c-78.507 0-102.4-23.893-102.4-102.4v-115.201c0-78.507 23.893-102.4 102.4-102.4h115.2c78.507 0 102.4 23.893 102.4 102.4v115.201c0 78.507-23.893 102.4-102.4 102.4h-115.2zM334.933-32h-115.2c-113.493 0-166.4 52.907-166.4 166.4v115.2c0 113.493 52.907 166.4 166.4 166.4h115.2c113.493 0 166.4-52.907 166.4-166.4v-115.2c0-113.493-52.907-166.4-166.4-166.4zM219.733 352c-78.507 0-102.4-23.893-102.4-102.4v-115.2c0-78.507 23.893-102.4 102.4-102.4h115.2c78.507 0 102.4 23.893 102.4 102.4v115.2c0 78.507-23.893 102.4-102.4 102.4h-115.2zM581.167 165.116h-111.787c-17.493 0-32 14.507-32 32v52.48c0 78.507-23.894 102.4-102.4 102.4h-52.48c-17.493 0-32 14.507-32 32v111.787c0 133.119 59.307 192.426 192.427 192.426h111.787c17.493 0 32-14.507 32-32v-52.48c0-78.507 23.893-102.399 102.4-102.399h52.48c17.493 0 32-14.507 32-32v-111.787c0-133.12-59.307-192.427-192.427-192.427zM501.38 229.116h79.787c97.28 0 128.427 31.147 128.427 128.427v79.787h-20.48c-113.493 0-166.4 52.907-166.4 166.399v20.48h-79.787c-97.28 0-128.427-31.147-128.427-128.426v-79.787h20.48c113.494 0 166.4-52.907 166.4-166.4v-20.48z" />
<glyph unicode="&#xe94c;" glyph-name="bag" d="M221.477 666.456c-8.107 0-16.64 3.413-22.613 9.387-12.373 12.373-12.373 32.853 0 45.227l154.88 154.88c12.373 12.373 32.853 12.373 45.227 0s12.373-32.853 0-45.227l-154.88-154.88c-6.4-5.973-14.507-9.387-22.613-9.387zM802.522 666.456c-8.107 0-16.213 2.987-22.613 9.387l-154.88 154.88c-12.373 12.373-12.373 32.853 0 45.227s32.853 12.373 45.227 0l154.88-154.88c12.373-12.373 12.373-32.853 0-45.227-5.973-5.973-14.507-9.387-22.613-9.387zM862.293 486.396c-2.987 0-5.973 0-8.96 0h-682.667c-29.867-0.427-64-0.427-88.747 24.32-19.627 19.2-28.587 49.067-28.587 93.013 0 117.333 85.76 117.333 126.72 117.333h663.893c40.96 0 126.72 0 126.72-117.333 0-44.373-8.96-73.813-28.587-93.013-22.187-22.187-52.053-24.32-79.787-24.32zM180.053 550.396h673.707c19.2-0.427 37.12-0.427 43.093 5.547 2.987 2.987 9.387 13.227 9.387 47.787 0 48.213-11.947 53.333-62.72 53.333h-663.467c-50.773 0-62.72-5.12-62.72-53.333 0-34.56 6.827-44.8 9.387-47.787 5.973-5.547 24.32-5.547 43.093-5.547h10.24zM416.417 157.867c-17.493 0-32 14.507-32 32v151.467c0 17.493 14.507 32 32 32 17.495 0 32.001-14.507 32.001-32v-151.467c0-17.92-14.507-32-32.001-32zM612.668 157.867c-17.493 0-32 14.507-32 32v151.467c0 17.493 14.507 32 32 32s32-14.507 32-32v-151.467c0-17.92-14.507-32-32-32zM635.337-32h-257.279c-152.747 0-186.88 90.88-200.107 169.813l-60.16 369.067c-2.987 17.493 8.96 33.707 26.453 36.693s33.707-8.96 36.693-26.453l60.16-368.64c12.373-75.52 37.973-116.48 136.96-116.48h257.279c109.653 0 122.027 38.4 136.107 112.64l71.68 373.333c3.413 17.493 20.053 29.013 37.547 25.173 17.493-3.413 28.587-20.053 25.173-37.547l-71.68-373.333c-16.64-86.613-44.373-164.267-198.827-164.267z" />
<glyph unicode="&#xe94d;" glyph-name="bag-2" d="M704 570.452c-17.493 0-32 14.507-32 32v58.88c0 44.8-19.2 88.32-52.48 118.613-33.707 30.72-77.227 44.8-123.307 40.533-76.8-7.253-144.213-85.76-144.213-167.68v-41.387c0-17.493-14.507-32-32-32s-32 14.507-32 32v41.813c0 114.773 92.587 220.587 202.24 231.253 64 5.973 125.44-14.080 172.373-57.173 46.507-42.24 73.387-102.827 73.387-165.973v-58.88c0-17.493-14.507-32-32-32zM639.991-32h-255.999c-197.12 0-233.813 91.733-243.2 180.907l-32 255.573c-4.693 46.080-6.4 112.213 38.4 161.707 38.4 42.667 101.973 63.147 194.133 63.147h341.332c92.587 0 156.16-20.907 194.133-63.147 44.373-49.493 43.093-115.627 38.4-160.853l-32-256.427c-9.387-89.173-46.080-180.907-243.2-180.907zM341.326 565.334c-72.107 0-121.6-14.080-146.773-42.24-20.907-23.040-27.733-58.453-22.187-111.36l32-255.573c7.253-68.267 26.027-124.587 179.627-124.587h255.999c153.6 0 172.373 55.893 179.627 123.733l32 256.427c5.547 52.053-1.28 87.467-22.187 110.933-25.173 28.587-74.667 42.667-146.773 42.667h-341.332zM657.929 377.605c-23.893 0-43.093 19.2-43.093 42.667s19.2 42.667 42.667 42.667c23.467 0 42.667-19.2 42.667-42.667s-18.773-42.667-42.24-42.667zM359.26 377.605c-23.893 0-43.093 19.2-43.093 42.667s19.2 42.667 42.667 42.667c23.467 0 42.667-19.2 42.667-42.667s-18.773-42.667-42.24-42.667z" />
<glyph unicode="&#xe94e;" glyph-name="bag-cross" d="M512 96c-111.787 0-202.667 90.88-202.667 202.667s90.88 202.667 202.667 202.667c111.787 0 202.667-90.88 202.667-202.667s-90.88-202.667-202.667-202.667zM512 437.334c-76.373 0-138.667-62.293-138.667-138.667s62.293-138.667 138.667-138.667c76.373 0 138.667 62.293 138.667 138.667s-62.293 138.667-138.667 138.667zM557.67 219.311c-8.107 0-16.213 2.987-22.613 9.387l-90.027 90.027c-12.373 12.373-12.373 32.853 0 45.227s32.853 12.373 45.227 0l90.027-90.027c12.373-12.373 12.373-32.853 0-45.227-6.4-6.4-14.507-9.387-22.613-9.387zM466.308 218.027c-8.107 0-16.213 2.987-22.613 9.387-12.373 12.373-12.373 32.853 0 45.227l90.027 90.027c12.373 12.373 32.853 12.373 45.227 0s12.373-32.853 0-45.227l-90.027-90.027c-6.4-5.973-14.507-9.387-22.613-9.387zM639.991-32h-255.999c-197.12 0-233.813 91.733-243.2 180.907l-32 255.573c-4.693 46.080-6.4 112.213 38.4 161.707 38.4 42.667 101.973 63.147 194.133 63.147h341.332c92.587 0 156.16-20.907 194.133-63.147 44.373-49.493 43.093-115.627 38.4-160.853l-32-256.427c-9.387-89.173-46.080-180.907-243.2-180.907zM341.326 565.334c-72.107 0-121.6-14.080-146.773-42.24-20.907-23.040-27.733-58.453-22.187-111.36l32-255.573c7.253-68.267 26.027-124.587 179.627-124.587h255.999c153.6 0 172.373 55.893 179.627 123.733l32 256.427c5.547 52.053-1.28 87.467-22.187 110.933-25.173 28.587-74.667 42.667-146.773 42.667h-341.332zM704 570.452c-17.493 0-32 14.507-32 32v58.88c0 44.8-19.2 88.32-52.48 118.613-33.707 30.72-77.653 44.8-123.307 40.533-76.8-7.253-144.213-85.76-144.213-167.68v-41.387c0-17.493-14.507-32-32-32s-32 14.507-32 32v41.813c0 114.773 92.587 220.587 202.24 231.253 64 5.973 125.44-14.080 172.373-57.173 46.507-42.24 73.387-102.827 73.387-165.973v-58.88c0-17.493-14.507-32-32-32z" />
<glyph unicode="&#xe94f;" glyph-name="bag-cross-1" d="M571.319 165.974c-8.107 0-16.213 2.987-22.613 9.387l-117.76 117.76c-12.373 12.373-12.373 32.853 0 45.227s32.853 12.373 45.227 0l117.76-117.76c12.373-12.373 12.373-32.853 0-45.227-5.973-6.4-14.080-9.387-22.613-9.387zM452.727 164.689c-8.107 0-16.213 2.987-22.613 9.387-12.374 12.373-12.374 32.853 0 45.227l117.76 117.76c12.373 12.373 32.853 12.373 45.227 0s12.373-32.853 0-45.227l-117.76-117.76c-6.4-6.4-14.507-9.387-22.613-9.387zM221.477 666.456c-8.107 0-16.64 3.413-22.613 9.387-12.373 12.373-12.373 32.853 0 45.227l154.88 154.88c12.373 12.373 32.853 12.373 45.227 0s12.373-32.853 0-45.227l-154.88-154.88c-6.4-5.973-14.507-9.387-22.613-9.387zM802.522 666.456c-8.107 0-16.213 2.987-22.613 9.387l-154.88 154.88c-12.373 12.373-12.373 32.853 0 45.227s32.853 12.373 45.227 0l154.88-154.88c12.373-12.373 12.373-32.853 0-45.227-5.973-5.973-14.507-9.387-22.613-9.387zM862.293 486.396c-2.987 0-5.973 0-8.96 0h-682.667c-29.867-0.427-64-0.427-88.747 24.32-19.627 19.2-28.587 49.067-28.587 93.013 0 117.333 85.76 117.333 126.72 117.333h663.893c40.96 0 126.72 0 126.72-117.333 0-44.373-8.96-73.813-28.587-93.013-22.187-22.187-52.053-24.32-79.787-24.32zM180.053 550.396h673.707c19.2-0.427 37.12-0.427 43.093 5.547 2.987 2.987 9.387 13.227 9.387 47.787 0 48.213-11.947 53.333-62.72 53.333h-663.467c-50.773 0-62.72-5.12-62.72-53.333 0-34.56 6.827-44.8 9.387-47.787 5.973-5.547 24.32-5.547 43.093-5.547h10.24zM635.337-32h-257.279c-152.747 0-186.88 90.88-200.107 169.813l-60.16 369.067c-2.987 17.493 8.96 33.707 26.453 36.693s33.707-8.96 36.693-26.453l60.16-368.64c12.373-75.52 37.973-116.48 136.96-116.48h257.279c109.653 0 122.027 38.4 136.107 112.64l71.68 373.333c3.413 17.493 20.053 29.013 37.547 25.173 17.493-3.413 28.587-20.053 25.173-37.547l-71.68-373.333c-16.64-86.613-44.373-164.267-198.827-164.267z" />
<glyph unicode="&#xe950;" glyph-name="bag-happy" d="M512 149.334c-99.84 0-181.333 81.493-181.333 181.333 0 17.493 14.507 32 32 32s32-14.507 32-32c0-64.853 52.48-117.333 117.333-117.333s117.333 52.48 117.333 117.333c0 17.493 14.507 32 32 32s32-14.507 32-32c0-99.84-81.493-181.333-181.333-181.333zM221.477 666.456c-8.107 0-16.64 3.413-22.613 9.387-12.373 12.373-12.373 32.853 0 45.227l154.88 154.88c12.373 12.373 32.853 12.373 45.227 0s12.373-32.853 0-45.227l-154.88-154.88c-6.4-5.973-14.507-9.387-22.613-9.387zM802.522 666.456c-8.107 0-16.213 2.987-22.613 9.387l-154.88 154.88c-12.373 12.373-12.373 32.853 0 45.227s32.853 12.373 45.227 0l154.88-154.88c12.373-12.373 12.373-32.853 0-45.227-5.973-5.973-14.507-9.387-22.613-9.387zM862.293 486.396c-2.987 0-5.973 0-8.96 0h-682.667c-29.867-0.427-64-0.427-88.747 24.32-19.627 19.2-28.587 49.067-28.587 93.013 0 117.333 85.76 117.333 126.72 117.333h663.893c40.96 0 126.72 0 126.72-117.333 0-44.373-8.96-73.813-28.587-93.013-22.187-22.187-52.053-24.32-79.787-24.32zM180.053 550.396h673.707c19.2-0.427 37.12-0.427 43.093 5.547 2.987 2.987 9.387 13.227 9.387 47.787 0 48.213-11.947 53.333-62.72 53.333h-663.467c-50.773 0-62.72-5.12-62.72-53.333 0-34.56 6.827-44.8 9.387-47.787 5.973-5.547 24.32-5.547 43.093-5.547h10.24zM635.337-32h-257.279c-152.747 0-186.88 90.88-200.107 169.813l-60.16 369.067c-2.987 17.493 8.96 33.707 26.453 36.693 17.067 2.987 33.707-8.96 36.693-26.453l60.16-368.64c12.373-75.52 37.973-116.48 136.96-116.48h257.279c109.653 0 122.027 38.4 136.107 112.64l71.68 373.333c3.413 17.493 20.053 29.013 37.547 25.173 17.493-3.413 28.587-20.053 25.173-37.547l-71.68-373.333c-16.64-86.613-44.373-164.267-198.827-164.267z" />
<glyph unicode="&#xe951;" glyph-name="bag-tick" d="M474.475 160c-8.107 0-16.213 2.987-22.613 9.387l-63.998 64c-12.373 12.373-12.373 32.853 0 45.227s32.853 12.373 45.225 0l42.24-42.24 116.053 107.093c12.8 11.947 33.28 11.093 45.227-1.707s11.093-33.28-1.707-45.227l-138.667-128c-5.973-5.547-13.653-8.533-21.76-8.533zM221.477 666.456c-8.107 0-16.64 3.413-22.613 9.387-12.373 12.373-12.373 32.853 0 45.227l154.88 154.88c12.373 12.373 32.853 12.373 45.227 0s12.373-32.853 0-45.227l-154.88-154.88c-6.4-5.973-14.507-9.387-22.613-9.387zM802.522 666.456c-8.107 0-16.213 2.987-22.613 9.387l-154.88 154.88c-12.373 12.373-12.373 32.853 0 45.227s32.853 12.373 45.227 0l154.88-154.88c12.373-12.373 12.373-32.853 0-45.227-5.973-5.973-14.507-9.387-22.613-9.387zM862.293 486.396c-2.987 0-5.973 0-8.96 0h-682.667c-29.867-0.427-64-0.427-88.747 24.32-19.627 19.2-28.587 49.067-28.587 93.013 0 117.333 85.76 117.333 126.72 117.333h663.893c40.96 0 126.72 0 126.72-117.333 0-44.373-8.96-73.813-28.587-93.013-22.187-22.187-52.053-24.32-79.787-24.32zM180.053 550.396h673.707c19.2-0.427 37.12-0.427 43.093 5.547 2.987 2.987 9.387 13.227 9.387 47.787 0 48.213-11.947 53.333-62.72 53.333h-663.467c-50.773 0-62.72-5.12-62.72-53.333 0-34.56 6.827-44.8 9.387-47.787 5.973-5.547 24.32-5.547 43.093-5.547h10.24zM635.337-32h-257.279c-152.747 0-186.88 90.88-200.107 169.813l-60.16 369.067c-2.987 17.493 8.96 33.707 26.453 36.693 17.067 2.987 33.707-8.96 36.693-26.453l60.16-368.64c12.373-75.52 37.973-116.48 136.96-116.48h257.279c109.653 0 122.027 38.4 136.107 112.64l71.68 373.333c3.413 17.493 20.053 29.013 37.547 25.173 17.493-3.413 28.587-20.053 25.173-37.547l-71.68-373.333c-16.64-86.613-44.373-164.267-198.827-164.267z" />
<glyph unicode="&#xe952;" glyph-name="bag-tick-2" d="M512 96c-111.787 0-202.667 90.88-202.667 202.667s90.88 202.667 202.667 202.667c111.787 0 202.667-90.88 202.667-202.667s-90.88-202.667-202.667-202.667zM512 437.334c-76.373 0-138.667-62.293-138.667-138.667s62.293-138.667 138.667-138.667c76.373 0 138.667 62.293 138.667 138.667s-62.293 138.667-138.667 138.667zM488.145 232.96c-13.653 0-27.307 5.12-37.547 15.787l-27.735 27.733c-12.373 12.373-12.373 32.853 0 45.227 12.375 12.373 32.855 12.373 45.228 0l20.48-20.48 68.693 63.147c12.8 11.947 33.28 11.093 45.227-1.707s11.093-33.28-1.707-45.227l-75.947-69.973c-10.667-9.813-23.893-14.507-36.693-14.507zM639.991-32h-255.999c-197.12 0-233.813 91.733-243.2 180.907l-32 255.573c-4.693 46.080-6.4 112.213 38.4 161.707 38.4 42.667 101.973 63.147 194.133 63.147h341.332c92.587 0 156.16-20.907 194.133-63.147 44.373-49.493 43.093-115.627 38.4-160.853l-32-256.427c-9.387-89.173-46.080-180.907-243.2-180.907zM341.326 565.334c-72.107 0-121.6-14.080-146.773-42.24-20.907-23.040-27.733-58.453-22.187-111.36l32-255.573c7.253-68.267 26.027-124.587 179.627-124.587h255.999c153.6 0 172.373 55.893 179.627 123.733l32 256.427c5.547 52.053-1.28 87.467-22.187 110.933-25.173 28.587-74.667 42.667-146.773 42.667h-341.332zM704 570.452c-17.493 0-32 14.507-32 32v58.88c0 44.8-19.2 88.32-52.48 118.613-33.707 30.72-77.653 44.8-123.307 40.533-76.8-7.253-144.213-85.76-144.213-167.68v-41.387c0-17.493-14.507-32-32-32s-32 14.507-32 32v41.813c0 114.773 92.587 220.587 202.24 231.253 64 5.973 125.44-14.080 172.373-57.173 46.507-42.24 73.387-102.827 73.387-165.973v-58.88c0-17.493-14.507-32-32-32z" />
<glyph unicode="&#xe953;" glyph-name="bag-timer" d="M512 96c-111.787 0-202.667 90.88-202.667 202.667s90.88 202.667 202.667 202.667c111.787 0 202.667-90.88 202.667-202.667s-90.88-202.667-202.667-202.667zM512 437.334c-76.373 0-138.667-62.293-138.667-138.667s62.293-138.667 138.667-138.667c76.373 0 138.667 62.293 138.667 138.667s-62.293 138.667-138.667 138.667zM469.329 224c-10.667 0-21.333 5.547-27.307 15.36-8.96 15.36-4.267 34.987 11.093 43.947l32.427 19.627c3.413 2.133 5.12 5.547 5.12 8.96v39.68c0 17.493 14.507 32 32 32s32-14.080 32-31.573v-39.68c0-26.027-14.080-50.773-36.267-64l-32.853-19.627c-4.693-3.413-10.667-4.693-16.213-4.693zM639.991-32h-255.999c-197.12 0-233.813 91.733-243.2 180.907l-32 255.573c-4.693 46.080-6.4 112.213 38.4 161.707 38.4 42.667 101.973 63.147 194.133 63.147h341.332c92.587 0 156.16-20.907 194.133-63.147 44.373-49.493 43.093-115.627 38.4-160.853l-32-256.427c-9.387-89.173-46.080-180.907-243.2-180.907zM341.326 565.334c-72.107 0-121.6-14.080-146.773-42.24-20.907-23.040-27.733-58.453-22.187-111.36l32-255.573c7.253-68.267 26.027-124.587 179.627-124.587h255.999c153.6 0 172.373 55.893 179.627 123.733l32 256.427c5.547 52.053-1.28 87.467-22.187 110.933-25.173 28.587-74.667 42.667-146.773 42.667h-341.332zM704 570.452c-17.493 0-32 14.507-32 32v58.88c0 44.8-19.2 88.32-52.48 118.613-33.707 30.72-77.653 44.8-123.307 40.533-76.8-7.253-144.213-85.76-144.213-167.68v-41.387c0-17.493-14.507-32-32-32s-32 14.507-32 32v41.813c0 114.773 92.587 220.587 202.24 231.253 64 5.973 125.44-14.080 172.373-57.173 46.507-42.24 73.387-102.827 73.387-165.973v-58.88c0-17.493-14.507-32-32-32z" />
<glyph unicode="&#xe954;" glyph-name="bank" d="M896 437.329h-768c-40.96 0-74.667 33.707-74.667 74.667v141.652c0 29.013 20.052 58.453 46.932 69.12l384.001 153.599c16.213 6.4 39.253 6.4 55.467 0l384-153.599c26.88-10.667 46.933-40.533 46.933-69.12v-141.652c0-40.96-33.707-74.667-74.667-74.667zM512 817.487c-1.707 0-3.413 0.002-4.267-0.425l-383.575-153.602c-2.56-1.28-6.825-6.826-6.825-9.812v-141.652c0-5.973 4.693-10.667 10.667-10.667h768c5.973 0 10.667 4.693 10.667 10.667v141.652c0 2.987-3.84 8.532-6.827 9.812l-384 153.602c-0.853 0.427-2.133 0.425-3.84 0.425zM938.667-32h-853.333c-17.493 0-32 14.507-32 32v128c0 40.96 33.707 74.667 74.667 74.667h768c40.96 0 74.667-33.707 74.667-74.667v-128c0-17.493-14.507-32-32-32zM117.333 32h789.333v96c0 5.973-4.693 10.667-10.667 10.667h-768c-5.973 0-10.667-4.693-10.667-10.667v-96zM170.667 138.667c-17.493 0-32 14.507-32 32v298.667c0 17.493 14.507 32 32 32s32-14.507 32-32v-298.667c0-17.493-14.507-32-32-32zM341.333 138.667c-17.493 0-32 14.507-32 32v298.667c0 17.493 14.507 32 32 32s32-14.507 32-32v-298.667c0-17.493-14.507-32-32-32zM512 138.667c-17.493 0-32 14.507-32 32v298.667c0 17.493 14.507 32 32 32s32-14.507 32-32v-298.667c0-17.493-14.507-32-32-32zM682.667 138.667c-17.493 0-32 14.507-32 32v298.667c0 17.493 14.507 32 32 32s32-14.507 32-32v-298.667c0-17.493-14.507-32-32-32zM853.333 138.667c-17.493 0-32 14.507-32 32v298.667c0 17.493 14.507 32 32 32s32-14.507 32-32v-298.667c0-17.493-14.507-32-32-32zM981.333-32h-938.667c-17.493 0-32 14.507-32 32s14.507 32 32 32h938.667c17.493 0 32-14.507 32-32s-14.507-32-32-32zM512 544c-52.907 0-96 43.093-96 96s43.093 96 96 96c52.907 0 96-43.093 96-96s-43.093-96-96-96zM512 672c-17.493 0-32-14.507-32-32s14.507-32 32-32c17.493 0 32 14.507 32 32s-14.507 32-32 32z" />
<glyph unicode="&#xe955;" glyph-name="barcode" d="M725.333 32h-426.667c-155.733 0-245.333 89.6-245.333 245.333v298.667c0 155.733 89.6 245.333 245.333 245.333h426.667c155.733 0 245.333-89.6 245.333-245.333v-298.667c0-155.733-89.6-245.333-245.333-245.333zM298.667 757.334c-122.027 0-181.333-59.307-181.333-181.333v-298.667c0-122.027 59.307-181.333 181.333-181.333h426.667c122.027 0 181.333 59.307 181.333 181.333v298.667c0 122.027-59.307 181.333-181.333 181.333h-426.667zM256 224c-17.493 0-32 14.507-32 32v341.333c0 17.493 14.507 32 32 32s32-14.507 32-32v-341.333c0-17.493-14.507-32-32-32zM384 394.667c-17.493 0-32 14.507-32 32v170.667c0 17.493 14.507 32 32 32s32-14.507 32-32v-170.667c0-17.493-14.507-32-32-32zM384 224c-17.493 0-32 14.507-32 32v42.667c0 17.493 14.507 32 32 32s32-14.507 32-32v-42.667c0-17.493-14.507-32-32-32zM640 522.667c-17.493 0-32 14.507-32 32v42.667c0 17.493 14.507 32 32 32s32-14.507 32-32v-42.667c0-17.493-14.507-32-32-32zM512 224c-17.493 0-32 14.507-32 32v341.333c0 17.493 14.507 32 32 32s32-14.507 32-32v-341.333c0-17.493-14.507-32-32-32zM640 224c-17.493 0-32 14.507-32 32v170.667c0 17.493 14.507 32 32 32s32-14.507 32-32v-170.667c0-17.493-14.507-32-32-32zM768 224c-17.493 0-32 14.507-32 32v341.333c0 17.493 14.507 32 32 32s32-14.507 32-32v-341.333c0-17.493-14.507-32-32-32z" />
<glyph unicode="&#xe956;" glyph-name="battery-3full" d="M874.667 288c-17.493 0-32 14.507-32 32s14.507 32 32 32c25.173 0 30.72 3.84 31.147 3.84 0.853 2.56 0.853 17.493 0.853 28.16v85.333c0 10.667 0 25.173-1.707 29.013-0.427-0.427-6.827 2.987-30.293 2.987-17.493 0-32 14.507-32 32s14.507 32 32 32c88.747 0 96-43.52 96-96v-85.333c0-52.48-7.253-96-96-96zM272.195 309.329c-2.56 0-5.12 0.427-7.68 0.853-17.067 4.267-27.733 21.76-23.467 38.827 12.8 50.773 12.8 104.533 0 155.307-4.267 17.067 5.973 34.56 23.467 38.827 17.067 4.267 34.133-6.4 38.4-23.467 15.36-61.013 15.36-125.44 0-186.027-3.413-14.507-16.64-24.32-30.72-24.32zM421.529 309.338c-2.56 0-5.12 0.427-7.68 0.853-17.067 4.267-27.734 21.76-23.467 38.827 12.8 50.773 12.8 104.533 0 155.307-4.267 17.065 5.974 34.558 23.467 38.825 17.067 4.267 34.56-5.973 38.827-23.467 15.36-61.011 15.36-125.438 0-186.025-3.84-14.507-17.067-24.32-31.147-24.32zM554.667 96h-256c-188.16 0-245.333 57.173-245.333 245.333v170.667c0 188.16 57.173 245.333 245.333 245.333h256c188.16 0 245.333-57.173 245.333-245.333v-170.667c0-188.16-57.173-245.333-245.333-245.333zM298.667 693.334c-152.32 0-181.333-29.013-181.333-181.333v-170.667c0-152.32 29.013-181.333 181.333-181.333h256c152.32 0 181.333 29.013 181.333 181.333v170.667c0 152.32-29.013 181.333-181.333 181.333h-256z" />
</font>
</defs>
</svg>
