<?xml version="1.0" standalone="no"?>
<!DOCTYPE svg PUBLIC "-//W3C//DTD SVG 1.1//EN" "http://www.w3.org/Graphics/SVG/1.1/DTD/svg11.dtd" >
<svg xmlns="http://www.w3.org/2000/svg">
<metadata>Generated by IcoMoon</metadata>
<defs>
<font id="isax-twotone" horiz-adv-x="1024">
<font-face units-per-em="1024" ascent="960" descent="-64" />
<missing-glyph horiz-adv-x="1024" />
<glyph unicode="&#x20;" horiz-adv-x="512" d="" />
<glyph unicode="&#xe900;" d="M490.667 884.651c-146.347-6.912-281.387-83.84-361.941-206.251-36.779-55.893-60.245-117.803-70.955-187.221-5.376-34.944-5.376-94.080 0-129.024 15.659-101.589 59.392-188.757 130.176-259.541 52.608-52.608 112.768-89.344 184.277-112.555 27.093-8.747 44.928-12.928 75.264-17.621 32.384-4.949 92.459-5.376 123.392-0.853 73.899 10.837 137.173 34.688 195.413 73.643 98.304 65.749 169.173 169.301 193.664 282.923 7.979 37.205 10.112 57.685 10.112 98.517 0 65.365-10.795 119.040-35.883 178.987-53.077 126.677-162.816 223.403-297.472 262.144-43.861 12.629-99.541 19.072-146.048 16.853zM551.509 819.158c134.4-13.269 254.251-96.384 313.728-217.557 19.328-39.381 29.952-72.619 37.035-116.053 4.309-26.496 4.309-91.264 0-117.76-14.251-87.211-52.096-160.981-114.091-222.251-31.659-31.317-62.251-53.12-101.248-72.192-39.083-19.115-72.277-29.824-114.901-36.992-25.899-4.352-94.165-4.352-120.064 0-42.624 7.168-75.819 17.877-114.901 36.992-73.515 35.968-135.381 96.171-173.995 169.344-73.515 139.435-56.875 309.333 42.325 432.299 13.397 16.597 43.733 46.805 59.989 59.733 58.069 46.293 132.309 76.928 203.947 84.267 20.821 2.133 61.611 2.219 82.176 0.171z" />
<glyph unicode="&#xe901;" d="M496.256 669.782c-2.56-1.408-6.4-5.12-8.533-8.277s-23.467-49.92-47.403-103.893l-43.52-98.133-33.28-0.64c-31.403-0.597-33.707-0.853-40.491-4.736-9.429-5.376-13.141-13.141-13.227-27.435-0.043-14.208 4.309-23.125 13.739-28.032 5.205-2.731 10.752-3.627 25.173-4.139 16.085-0.555 18.304-0.981 17.365-3.413-0.555-1.493-13.739-31.36-29.269-66.347-30.464-68.736-31.744-72.96-25.088-84.309 6.741-11.563 27.093-19.584 40.96-16.085 9.984 2.517 14.251 10.197 50.091 90.965l34.944 78.72 42.709 0.555c39.211 0.469 43.221 0.811 49.365 4.053 9.429 4.907 13.781 13.867 13.739 28.032-0.085 14.336-3.797 22.059-13.227 27.392-6.613 3.712-9.6 4.139-35.029 4.736-24.875 0.64-27.733 1.024-26.837 3.499 3.072 8.491 42.837 97.408 43.563 97.408 0.469 0 32.725-71.893 71.68-159.744s72.576-162.304 74.709-165.461c8.149-12.032 23.893-14.464 39.851-6.144 11.947 6.229 16.853 13.483 16.853 24.917 0 7.808-9.216 29.44-87.979 206.635-48.384 108.885-89.6 199.68-91.605 201.813-9.045 9.685-28.8 13.739-39.253 8.064z" />
<glyph unicode="&#xe902;" d="M344.747 883.968c-173.739-9.088-263.893-85.931-285.739-243.584-4.821-34.645-6.016-77.867-6.016-213.717 0-192.171 2.56-224.981 22.101-283.733 32.939-98.688 104.363-152.576 224.725-169.472 32.384-4.523 80-5.845 212.181-5.845s179.797 1.323 212.181 5.845c105.387 14.805 171.648 56.917 210.091 133.632 20.565 40.96 31.616 90.496 35.115 157.141 2.176 41.344 2.176 283.52 0 324.864-2.688 50.987-8.491 85.419-20.395 121.045-26.027 77.867-75.648 127.531-153.259 153.429-36.779 12.245-69.419 17.749-121.344 20.48-36.437 1.92-292.437 1.835-329.643-0.085zM716.8 816.896c118.869-19.712 166.997-68.267 185.515-187.136 2.816-17.963 3.072-35.157 3.072-203.093s-0.256-185.131-3.072-203.093c-18.603-119.381-67.84-168.619-187.221-187.221-17.963-2.816-35.157-3.072-203.093-3.072s-185.131 0.256-203.093 3.072c-119.040 18.56-168.832 68.139-187.136 186.368-2.944 18.987-3.157 33.749-3.157 203.947 0 202.795-0.171 198.955 11.264 243.712 21.888 85.589 71.595 128.597 167.083 144.555 31.147 5.248 46.421 5.589 223.573 5.248 160.555-0.299 180.139-0.597 196.267-3.285z" />
<glyph unicode="&#xe903;" d="M697.856 562.774c-7.851-4.864-7.765-4.779-60.331-72.96-24.277-31.445-46.464-59.648-49.323-62.72-9.131-9.728-6.827-10.965-65.109 35.2-17.835 14.123-37.419 28.203-43.52 31.275-10.539 5.376-12.032 5.632-29.867 5.632-23.509 0-35.157-3.883-49.195-16.384-9.387-8.363-106.923-132.992-115.925-148.139-8.747-14.677-5.461-28.8 9.173-39.381 14.72-10.667 27.605-10.709 38.4-0.128 2.859 2.773 26.965 33.323 53.504 67.883 53.803 69.931 57.131 73.856 62.549 73.856 2.347 0 19.925-12.715 46.165-33.323 49.621-38.997 57.941-43.776 78.080-44.843 23.168-1.237 39.893 4.011 54.869 17.195 8.149 7.211 105.813 131.627 112.811 143.744 7.168 12.459 4.651 26.368-6.443 35.712-13.611 11.477-25.387 13.867-35.84 7.381z" />
<glyph unicode="&#xe904;" d="M418.304 615.894c-8.448-2.517-22.315-11.861-29.013-19.456-3.2-3.669-7.808-10.88-10.24-16.085-3.797-8.107-4.437-11.776-4.437-25.685 0-14.037 0.64-17.536 4.565-25.984 19.029-40.576 71.467-50.475 102.613-19.328 25.813 25.813 25.813 64.811 0 90.624-12.245 12.245-23.552 16.853-42.325 17.323-8.448 0.213-17.963-0.427-21.163-1.408zM562.944 613.846c-20.992-8.832-34.56-25.685-39.040-48.555-6.699-34.005 18.859-68.907 53.973-73.643 27.563-3.755 53.504 10.197 65.92 35.371 5.12 10.453 5.589 12.672 5.589 27.648s-0.469 17.195-5.589 27.648c-6.315 12.8-17.28 23.723-30.421 30.293-6.741 3.413-11.477 4.309-24.576 4.779-13.995 0.469-17.536 0-25.856-3.541zM450.304 570.838c13.525-11.392 9.003-31.701-8.107-36.608-16.213-4.651-31.531 14.293-23.893 29.525 5.888 11.776 22.144 15.403 32 7.083zM598.315 572.331c19.115-12.501 5.291-44.331-16.512-38.101-17.109 4.907-21.632 25.216-8.107 36.608 6.144 5.163 17.963 5.888 24.619 1.493zM339.157 485.675c-54.4-22.357-53.333-98.133 1.621-118.699 26.923-10.069 59.349 0.64 75.392 24.832 7.211 10.923 9.557 19.456 9.557 34.859s-2.347 23.936-9.557 34.859c-16.341 24.661-50.048 35.243-77.013 24.149zM637.824 485.675c-54.4-22.357-53.333-98.133 1.621-118.699 26.923-10.069 59.349 0.64 75.392 24.832 7.211 10.923 9.557 19.456 9.557 34.859s-2.347 23.936-9.557 34.859c-16.341 24.661-50.048 35.243-77.013 24.149zM373.632 444.672c5.077-2.645 10.368-11.776 10.368-18.005 0-5.717-4.907-14.848-9.685-17.963-2.347-1.536-7.595-2.816-11.648-2.816s-9.301 1.28-11.648 2.816c-4.779 3.115-9.685 12.245-9.685 17.963 0 6.016 5.205 15.275 10.027 17.92 5.845 3.157 16.213 3.2 22.272 0.085zM672.299 444.672c5.077-2.645 10.368-11.776 10.368-18.005 0-5.717-4.907-14.848-9.685-17.963-2.347-1.536-7.595-2.816-11.648-2.816s-9.301 1.28-11.648 2.816c-4.779 3.115-9.685 12.245-9.685 17.963 0 6.016 5.205 15.275 10.027 17.92 5.845 3.157 16.213 3.2 22.272 0.085zM418.304 359.894c-8.448-2.517-22.315-11.861-29.013-19.456-3.2-3.669-7.808-10.88-10.24-16.085-3.797-8.107-4.437-11.776-4.437-25.685 0-14.037 0.64-17.536 4.565-25.984 19.029-40.576 71.467-50.475 102.613-19.328 25.813 25.813 25.813 64.811 0 90.624-12.245 12.245-23.552 16.853-42.325 17.323-8.448 0.213-17.963-0.427-21.163-1.408zM562.944 357.846c-20.992-8.832-34.56-25.685-39.040-48.555-6.699-34.005 18.859-68.907 53.973-73.643 27.563-3.755 53.504 10.197 65.92 35.371 5.12 10.453 5.589 12.672 5.589 27.648s-0.469 17.195-5.589 27.648c-6.315 12.8-17.28 23.723-30.421 30.293-6.741 3.413-11.477 4.309-24.576 4.779-13.995 0.469-17.536 0-25.856-3.541zM450.304 314.838c13.525-11.392 9.003-31.701-8.107-36.608-16.213-4.651-31.531 14.293-23.893 29.525 5.888 11.776 22.144 15.403 32 7.083zM598.315 316.331c19.115-12.501 5.291-44.331-16.512-38.101-17.109 4.907-21.632 25.216-8.107 36.608 6.144 5.163 17.963 5.888 24.619 1.493z" />
<glyph unicode="&#xe905;" d="M501.76 875.52c-11.221-2.005-15.872-4.181-21.888-10.197-9.771-9.813-13.397-32.341-7.808-49.067 5.461-16.384 18.56-24.363 39.936-24.363 14.251 0 25.301 3.712 32 10.752 14.336 15.019 14.080 49.067-0.512 63.275-8.491 8.192-26.453 12.331-41.728 9.6zM258.859 844.63c-9.387-4.949-13.653-15.232-12.8-30.72 0.725-12.459 3.413-17.835 12.288-24.491 6.869-5.12 31.104-5.12 37.973 0 8.875 6.656 11.563 12.032 12.288 24.491 0.896 15.787-3.413 25.813-13.141 30.763-9.429 4.821-27.435 4.779-36.608-0.043zM728.192 844.63c-9.387-4.949-13.653-15.232-12.8-30.72 0.725-12.459 3.413-17.835 12.288-24.491 6.869-5.12 31.104-5.12 37.973 0 8.875 6.656 11.563 12.032 12.288 24.491 0.896 15.787-3.413 25.813-13.141 30.763-9.429 4.821-27.435 4.779-36.608-0.043zM329.173 767.446c-23.253-8.704-36.309-26.88-36.309-50.645 0-20.779 10.283-37.76 28.715-47.488 7.509-3.925 10.667-4.523 24.021-4.523s16.512 0.597 24.021 4.523c10.368 5.461 20.309 16.043 25.173 26.795 5.504 12.245 5.077 30.677-1.067 43.179-5.205 10.667-14.293 19.797-25.429 25.515-9.131 4.693-29.909 6.101-39.125 2.645zM661.973 767.446c-23.253-8.704-36.309-26.88-36.309-50.645 0-20.779 10.283-37.76 28.715-47.488 7.509-3.925 10.667-4.523 24.021-4.523s16.512 0.597 24.021 4.523c10.368 5.461 20.309 16.043 25.173 26.795 5.504 12.245 5.077 30.677-1.067 43.179-5.205 10.667-14.293 19.797-25.429 25.515-9.131 4.693-29.909 6.101-39.125 2.645zM497.493 733.312c-22.4-8.789-36.736-28.501-36.651-50.475 0.043-15.616 6.144-28.629 18.688-39.893 25.813-23.253 66.475-15.019 82.048 16.555 17.493 35.541-8.533 76.416-48.299 75.947-5.888-0.085-12.971-1.024-15.787-2.133zM350.891 725.718c4.181-2.773 5.888-8.576 3.84-13.056-5.504-12.117-23.339-4.224-18.603 8.235 2.133 5.504 9.899 8.064 14.763 4.821zM683.52 725.974c6.997-2.731 6.357-16.256-0.896-18.56-9.131-2.901-17.493 5.461-13.355 13.312 3.2 6.101 7.68 7.765 14.251 5.248zM520.832 690.091c6.656-6.059 1.877-17.664-7.296-17.664-4.949 0-10.069 5.205-10.069 10.24 0 8.619 10.88 13.269 17.365 7.424zM162.091 670.891c-15.744-3.157-22.869-12.757-22.955-30.891-0.085-21.333 10.112-31.573 31.531-31.573s31.616 10.24 31.531 31.573c-0.085 13.909-3.883 22.144-12.373 26.837-7.381 4.011-19.115 5.76-27.733 4.053zM844.757 670.891c-15.744-3.157-22.869-12.757-22.955-30.891-0.085-21.333 10.112-31.573 31.531-31.573s31.616 10.24 31.531 31.573c-0.085 13.909-3.883 22.144-12.373 26.837-7.381 4.011-19.115 5.76-27.733 4.053zM272.469 605.014c-14.293-5.419-26.709-17.707-32-31.616-13.013-34.261 12.885-71.637 49.664-71.637 14.592 0 26.837 5.12 37.291 15.616 25.984 25.941 18.517 69.077-14.72 85.333-10.027 4.907-30.293 6.059-40.235 2.304zM712.875 604.288c-12.757-5.12-22.485-14.123-28.587-26.453-13.867-28.203-0.597-61.525 29.013-72.789 19.541-7.424 39.637-3.029 54.827 11.947 27.221 26.795 20.608 67.925-13.781 85.717-10.539 5.461-29.952 6.229-41.472 1.579zM297.259 562.091c3.883-3.541 4.011-10.411 0.299-14.549-5.888-6.485-17.664-1.92-17.664 6.827 0 9.131 10.581 13.824 17.365 7.723zM740.651 559.36c2.347-4.224 2.347-5.163 0-9.387-4.992-8.96-18.731-5.76-18.731 4.395 0 10.667 13.525 14.293 18.731 4.992zM161.536 477.014c-14.293-5.419-26.709-17.707-32-31.616-13.013-34.261 12.885-71.637 49.664-71.637 14.592 0 26.837 5.12 37.291 15.616 25.984 25.941 18.517 69.077-14.72 85.333-10.027 4.907-30.293 6.059-40.235 2.304zM823.808 476.203c-12.672-4.949-22.485-13.995-28.587-26.368-13.867-28.203-0.597-61.525 29.013-72.789 19.541-7.424 39.637-3.029 54.827 11.947 27.307 26.88 20.096 69.248-14.635 85.717-12.501 5.931-27.819 6.485-40.619 1.493zM52.053 467.755c-18.987-4.651-28.16-18.005-28.16-41.088 0-13.952 3.499-24.619 10.453-31.829 15.531-16 54.656-13.568 66.944 4.139 8.149 11.819 9.941 34.304 3.883 48.725-6.955 16.597-30.635 25.515-53.12 20.053zM946.347 467.67c-19.84-5.12-28.416-17.408-28.501-40.875-0.128-27.861 14.592-42.795 42.155-42.795 27.648 0 42.069 14.677 42.069 42.795 0 21.589-7.808 34.176-24.619 39.808-8.533 2.859-22.315 3.328-31.104 1.067zM186.325 434.091c6.485-5.888 1.92-17.664-6.827-17.664-9.131 0-13.824 10.581-7.723 17.365 3.541 3.883 10.411 4.011 14.549 0.299zM851.584 431.36c2.347-4.224 2.347-5.163 0-9.387-5.12-9.216-18.731-5.675-18.731 4.821 0 10.581 13.525 13.867 18.731 4.565zM272.469 349.014c-14.293-5.419-26.709-17.707-32-31.616-13.013-34.261 12.885-71.637 49.664-71.637 14.592 0 26.837 5.12 37.291 15.616 25.984 25.941 18.517 69.077-14.72 85.333-10.027 4.907-30.293 6.059-40.235 2.304zM712.875 348.288c-12.757-5.12-22.485-14.123-28.587-26.453-13.867-28.203-0.597-61.525 29.013-72.789 19.541-7.424 39.637-3.029 54.827 11.947 27.221 26.795 20.608 67.925-13.781 85.717-10.539 5.461-29.952 6.229-41.472 1.579zM297.259 306.091c6.485-5.888 1.92-17.664-6.827-17.664-9.131 0-13.824 10.581-7.723 17.365 3.541 3.883 10.411 4.011 14.549 0.299zM740.651 303.36c2.347-4.224 2.347-5.163 0-9.387-4.992-8.96-18.731-5.76-18.731 4.395 0 10.667 13.525 14.293 18.731 4.992zM155.52 263.979c-20.267-7.637-23.253-42.667-4.779-56.448 6.741-5.035 28.459-5.931 36.949-1.536 19.755 10.24 20.309 47.189 0.853 56.747-6.656 3.285-25.728 3.968-33.024 1.237zM838.187 263.979c-20.267-7.637-23.253-42.667-4.779-56.448 6.741-5.035 28.459-5.931 36.949-1.536 19.755 10.24 20.309 47.189 0.853 56.747-6.656 3.285-25.728 3.968-33.024 1.237zM497.493 212.779c-22.4-8.789-36.736-28.501-36.651-50.475 0.043-15.616 6.144-28.629 18.688-39.893 25.813-23.253 66.475-15.019 82.048 16.555 17.493 35.541-8.533 76.416-48.299 75.947-5.888-0.085-12.971-1.024-15.787-2.133zM329.173 178.646c-23.253-8.704-36.309-26.88-36.309-50.645 0-20.779 10.283-37.76 28.715-47.488 7.509-3.925 10.667-4.523 24.021-4.523s16.512 0.597 24.021 4.523c9.003 4.736 19.285 14.848 23.424 23.083 13.483 26.581 2.645 58.325-24.747 72.405-9.131 4.693-29.909 6.101-39.125 2.645zM661.973 178.646c-23.253-8.704-36.309-26.88-36.309-50.645 0-20.779 10.283-37.76 28.715-47.488 7.509-3.925 10.667-4.523 24.021-4.523s16.512 0.597 24.021 4.523c10.368 5.461 20.309 16.043 25.173 26.795 5.504 12.245 5.077 30.677-1.067 43.179-5.205 10.667-14.293 19.797-25.429 25.515-9.131 4.693-29.909 6.101-39.125 2.645zM520.832 169.558c6.656-6.059 1.877-17.664-7.296-17.664-4.949 0-10.069 5.205-10.069 10.24 0 8.619 10.88 13.269 17.365 7.424zM350.891 136.918c4.181-2.773 5.888-8.576 3.84-13.056-5.504-12.117-23.339-4.224-18.603 8.235 2.133 5.504 9.899 8.064 14.763 4.821zM683.52 137.174c4.011-1.536 6.229-8.32 4.309-13.312-2.944-7.808-14.976-7.893-18.475-0.171-4.309 9.429 4.053 17.365 14.165 13.483zM267.392 64.939c-8.363-1.664-14.848-6.485-18.731-13.867-4.395-8.405-3.499-30.123 1.536-36.864 6.272-8.405 13.824-11.648 27.136-11.648s20.864 3.243 27.136 11.648c3.029 4.053 3.584 7.211 3.584 19.925 0 16.683-2.347 21.973-12.117 27.563-6.059 3.456-19.755 5.035-28.544 3.243zM736.725 64.939c-8.363-1.664-14.848-6.485-18.731-13.867-4.395-8.405-3.499-30.123 1.536-36.864 6.272-8.405 13.824-11.648 27.136-11.648s20.864 3.243 27.136 11.648c3.029 4.053 3.584 7.211 3.584 19.925 0 16.683-2.347 21.973-12.117 27.563-6.059 3.456-19.755 5.035-28.544 3.243zM492.587 60.63c-14.592-5.205-23.253-19.84-23.253-39.296 0-27.477 14.677-42.069 42.539-42.155 27.861-0.128 42.795 14.592 42.795 42.155 0 20.096-9.813 35.755-25.045 39.979-9.088 2.517-29.099 2.133-37.035-0.683z" />
<glyph unicode="&#xe906;" d="M502.912 713.472c-8.064-1.621-14.635-6.357-19.072-13.909-3.371-5.717-3.413-8.875-3.413-272.896s0.043-267.179 3.413-272.896c4.651-7.893 10.923-12.203 20.267-13.952 15.659-2.944 29.184 2.304 36.053 13.952 3.371 5.717 3.413 9.344 3.925 263.509 0.299 141.739 0.043 262.485-0.555 268.331-1.749 17.28-10.325 26.453-26.411 28.245-4.224 0.512-10.624 0.299-14.208-0.384z" />
<glyph unicode="&#xe907;" d="M246.912 457.472c-14.592-2.859-22.144-13.397-22.144-30.805 0-19.712 8.832-29.568 28.288-31.531 5.845-0.597 126.592-0.853 268.331-0.555 254.165 0.512 257.792 0.555 263.509 3.925 7.893 4.651 12.203 10.923 13.952 20.267 2.944 15.659-2.304 29.184-13.952 36.053-5.717 3.371-9.088 3.413-268.629 3.669-144.555 0.128-265.771-0.341-269.355-1.024z" />
<glyph unicode="&#xe908;" d="M493.227 884.651c-165.589-7.68-312.661-101.888-388.48-248.875-34.603-67.157-50.389-132.267-50.475-208.256-0.043-48.768 5.248-86.571 18.347-130.987 43.264-146.688 162.987-266.411 309.248-309.205 72.235-21.12 152.576-24.491 223.829-9.344 135.040 28.672 250.155 116.651 313.557 239.573 34.773 67.499 50.475 132.395 50.475 209.109 0 48.512-5.163 84.907-18.389 130.133-42.795 146.261-162.944 266.411-309.205 309.205-47.36 13.867-102.656 20.779-148.907 18.645zM560.981 818.262c88.704-11.605 165.547-49.579 229.291-113.323 35.797-35.797 61.568-72.704 81.451-116.736 23.509-52.011 34.517-103.509 34.517-161.536s-11.008-109.525-34.517-161.536c-19.883-44.032-45.653-80.939-81.451-116.736s-72.704-61.568-116.736-81.451c-52.011-23.509-103.509-34.517-161.536-34.517s-109.525 11.008-161.536 34.517c-44.032 19.883-80.939 45.653-116.736 81.451-76.075 76.075-115.968 171.819-115.968 278.272s39.893 202.197 115.968 278.272c63.232 63.232 139.861 101.291 227.968 113.323 23.851 3.243 74.581 3.243 99.285 0z" />
<glyph unicode="&#xe909;" d="M502.912 628.139c-8.064-1.621-14.635-6.357-19.072-13.909-3.243-5.504-3.456-9.387-3.925-80.384l-0.555-74.539-74.539-0.555c-70.997-0.469-74.88-0.683-80.384-3.925-11.648-6.869-16.896-20.395-13.952-36.053 1.749-9.344 6.059-15.616 13.952-20.267 5.504-3.243 9.387-3.456 80.384-3.925l74.539-0.555 0.555-74.539c0.469-70.997 0.683-74.88 3.925-80.384 6.869-11.648 20.395-16.896 36.053-13.952 9.344 1.749 15.616 6.059 20.267 13.952 3.243 5.504 3.456 9.387 3.925 80.384l0.555 74.539 74.539 0.555c70.997 0.469 74.88 0.683 80.384 3.925 7.893 4.651 12.203 10.923 13.952 20.267 2.944 15.659-2.304 29.184-13.952 36.053-5.504 3.243-9.387 3.456-80.469 3.925l-74.667 0.555-0.085 69.419c-0.043 38.229-0.725 72.789-1.493 76.885-3.371 17.408-19.541 26.496-39.936 22.528z" />
<glyph unicode="&#xe90a;" d="M574.293 627.926c-53.632-4.267-95.189-24.277-120.576-58.069-14.464-19.2-22.272-36.523-29.269-64.683-3.499-14.208-3.584-18.219-4.181-197.12-0.597-189.867-0.427-196.651 6.656-224.683 13.013-51.627 50.091-90.581 100.437-105.557 28.843-8.533 33.621-8.875 147.627-9.728 138.112-1.067 163.755 0.64 198.016 13.227 38.357 14.123 71.125 47.317 84.907 86.101 6.485 18.304 9.515 33.963 11.435 59.008 2.304 30.165 2.304 314.325 0 344.491-3.883 50.987-17.195 83.925-45.184 111.915s-60.928 41.301-111.915 45.184c-26.368 2.005-212.437 1.92-237.952-0.085zM839.424 560.128c34.603-10.624 52.053-28.245 62.037-62.677l3.925-13.611v-370.347l-3.925-13.611c-9.984-34.432-27.435-52.053-62.037-62.677-12.416-3.797-13.611-3.797-138.24-4.352-118.955-0.555-126.549-0.384-141.909 2.731-31.787 6.528-51.883 20.693-63.445 44.8-12.459 25.984-11.989 17.28-11.989 218.283 0 166.869 0.213 180.992 3.029 193.024 9.301 39.637 31.531 61.483 70.997 69.888 13.653 2.944 23.936 3.115 141.867 2.773 126.336-0.427 127.232-0.427 139.691-4.224z" />
<glyph unicode="&#xe90b;" d="M208.299 883.968c-81.024-6.528-132.608-48.725-149.163-122.069-5.205-23.083-6.229-57.003-6.229-207.232 0-180.437 0.939-196.736 13.184-231.253 13.781-38.784 46.549-71.979 84.907-86.101 30.421-11.179 64.341-14.293 145.963-13.44 51.797 0.512 55.851 0.768 61.269 3.968 7.893 4.651 12.203 10.923 13.952 20.267 2.944 15.659-2.304 29.184-13.952 36.053-5.504 3.243-9.856 3.456-83.456 4.395-73.387 0.981-78.336 1.237-90.197 4.779-34.389 10.283-52.053 28.075-62.037 62.549l-3.925 13.611v370.347l3.925 13.611c9.984 34.432 27.435 52.053 62.037 62.677 12.416 3.797 13.611 3.797 138.24 4.352 118.955 0.555 126.549 0.384 141.909-2.731 50.517-10.325 72.192-39.509 76.117-102.357 1.536-24.448 2.688-27.648 12.757-35.2 3.968-2.901 7.253-3.499 19.84-3.499 17.109 0 22.272 2.389 27.861 12.928 2.731 5.163 2.987 8.875 2.219 31.445-1.579 44.928-11.307 75.648-33.237 104.789-16.555 22.016-44.8 41.088-73.643 49.664-29.397 8.704-32.555 8.917-155.307 9.429-63.36 0.256-123.221-0.171-133.035-0.981zM685.525 395.776c-10.624-5.589-13.013-13.184-13.056-41.003l-0.043-23.253-24.32-0.768c-27.947-0.853-34.688-3.029-40.917-13.056-3.157-5.035-3.883-8.704-3.883-19.029s0.725-13.995 3.883-19.029c6.229-10.027 12.971-12.203 40.917-13.056l24.32-0.768 0.043-23.253c0.043-28.16 2.432-35.456 13.397-41.088 9.344-4.736 26.795-4.821 35.925-0.128 11.093 5.632 13.781 13.653 13.781 41.344v23.125l24.32 0.768c27.947 0.853 34.688 3.029 40.917 13.056 5.547 8.917 5.547 29.141 0 38.059-6.229 10.027-12.971 12.203-40.917 13.056l-24.32 0.768v23.125c0 27.691-2.688 35.712-13.781 41.344-9.045 4.651-27.264 4.523-36.267-0.213z" />
<glyph unicode="&#xe90c;" d="M344.747 883.968c-173.739-9.088-263.893-85.931-285.739-243.584-4.821-34.645-6.016-77.867-6.016-213.717 0-192.171 2.56-224.981 22.101-283.733 32.939-98.688 104.363-152.576 224.725-169.472 32.384-4.523 80-5.845 212.181-5.845s179.797 1.323 212.181 5.845c105.387 14.805 171.648 56.917 210.091 133.632 20.565 40.96 31.616 90.496 35.115 157.141 2.176 41.344 2.176 283.52 0 324.864-2.688 50.987-8.491 85.419-20.395 121.045-26.027 77.867-75.648 127.531-153.259 153.429-36.779 12.245-69.419 17.749-121.344 20.48-36.437 1.92-292.437 1.835-329.643-0.085zM716.8 816.896c118.869-19.712 166.997-68.267 185.515-187.136 2.816-17.963 3.072-35.157 3.072-203.093s-0.256-185.131-3.072-203.093c-18.603-119.381-67.84-168.619-187.221-187.221-17.963-2.816-35.157-3.072-203.093-3.072s-185.131 0.256-203.093 3.072c-119.040 18.56-168.832 68.139-187.136 186.368-2.944 18.987-3.157 33.749-3.157 203.947 0 202.795-0.171 198.955 11.264 243.712 21.888 85.589 71.595 128.597 167.083 144.555 31.147 5.248 46.421 5.589 223.573 5.248 160.555-0.299 180.139-0.597 196.267-3.285z" />
<glyph unicode="&#xe90d;" d="M502.912 628.139c-8.064-1.621-14.635-6.357-19.072-13.909-3.243-5.504-3.456-9.387-3.925-80.384l-0.555-74.539-74.539-0.555c-70.997-0.469-74.88-0.683-80.384-3.925-11.648-6.869-16.896-20.395-13.952-36.053 1.749-9.344 6.059-15.616 13.952-20.267 5.504-3.243 9.387-3.456 80.384-3.925l74.539-0.555 0.555-74.539c0.469-70.997 0.683-74.88 3.925-80.384 6.869-11.648 20.395-16.896 36.053-13.952 9.344 1.749 15.616 6.059 20.267 13.952 3.243 5.504 3.456 9.387 3.925 80.384l0.555 74.539 74.539 0.555c70.997 0.469 74.88 0.683 80.384 3.925 7.893 4.651 12.203 10.923 13.952 20.267 2.944 15.659-2.304 29.184-13.952 36.053-5.504 3.243-9.387 3.456-80.469 3.925l-74.667 0.555-0.085 69.419c-0.043 38.229-0.725 72.789-1.493 76.885-3.371 17.408-19.541 26.496-39.936 22.528z" />
<glyph unicode="&#xe90e;" d="M493.227 884.608c-199.893-9.131-364.117-163.584-385.621-362.709-2.304-21.333-2.304-66.773 0-88.064 9.557-87.851 49.365-172.885 110.72-236.373 21.973-22.741 29.397-27.52 41.088-26.411 19.84 1.92 35.712 25.557 28.971 43.221-0.939 2.475-10.368 13.483-20.949 24.405-29.909 30.976-47.061 55.211-64.341 91.093-63.36 131.371-37.248 286.379 65.664 389.675 54.955 55.168 120.405 87.936 197.504 98.901 23.211 3.285 67.968 3.243 91.947-0.085 212.48-29.653 346.325-243.456 279.68-446.763-16.384-49.92-42.453-92.587-81.024-132.565-19.883-20.608-21.291-22.784-21.291-32.939 0-9.728 1.664-13.44 10.027-22.229 8.107-8.576 13.781-11.392 22.827-11.392 10.283 0 19.2 6.101 38.315 26.155 61.483 64.469 100.309 148.651 109.867 238.037 2.859 27.136 1.195 82.304-3.371 108.715-7.253 42.325-19.541 79.403-38.912 117.461-20.693 40.661-43.221 71.552-76.288 104.448-59.648 59.392-136.363 98.603-220.245 112.597-15.488 2.603-61.781 6.272-70.059 5.589-1.877-0.128-8.405-0.512-14.507-0.768z" />
<glyph unicode="&#xe90f;" d="M479.573 742.4c-49.707-6.827-93.653-25.301-132.267-55.509-89.941-70.357-124.288-192.384-84.651-301.013 13.269-36.395 46.251-85.931 64.341-96.725 13.952-8.32 31.616-3.072 42.069 12.501 9.301 13.867 7.637 23.381-7.253 41.131-27.733 33.024-43.349 65.749-49.621 104.107-3.115 18.859-2.304 51.755 1.664 71.253 20.821 101.589 116.139 172.117 217.899 161.237 98.048-10.453 173.952-87.765 181.504-184.875 4.437-56.96-11.776-105.344-50.517-151.040-15.445-18.219-17.323-27.691-8.277-41.557 10.112-15.488 28.544-21.035 42.581-12.8 7.381 4.309 26.539 26.923 38.485 45.397 57.088 88.32 56.107 202.923-2.475 290.901-39.509 59.307-98.091 98.688-169.003 113.579-19.413 4.053-65.963 5.931-84.48 3.413zM490.667 601.771c-38.784-6.315-73.344-31.872-91.307-67.499-17.237-34.133-17.024-78.592 0.469-113.579 5.845-11.691 20.949-30.336 31.36-38.827 23.253-18.901 50.603-28.672 80.256-28.715 44.757-0.043 81.92 20.011 106.325 57.387 11.989 18.389 17.365 36.309 18.389 61.568 1.28 30.805-5.248 54.315-21.803 78.379-26.368 38.315-76.331 59.008-123.691 51.285zM537.941 533.888c12.373-5.803 24.277-17.664 30.080-30.080 3.925-8.405 4.565-11.947 4.565-25.941s-0.64-17.536-4.565-25.941c-5.803-12.416-17.664-24.277-30.080-30.080-8.405-3.925-11.947-4.565-25.941-4.565-13.227 0-17.749 0.725-24.619 3.883-23.723 10.923-37.163 31.872-36.992 57.728 0.085 17.963 5.035 29.739 17.92 42.667 14.165 14.123 23.851 17.877 44.544 17.28 12.459-0.341 17.195-1.28 25.088-4.949zM498.091 293.248c-25.429-2.389-50.475-13.739-69.675-31.531-9.216-8.533-60.587-70.741-78.037-94.549-25.685-35.029-31.403-81.152-15.019-121.472 10.795-26.496 33.963-51.243 59.648-63.659 25.899-12.501 28.288-12.757 116.181-12.757 48.811 0 80.768 0.683 86.485 1.835 39.040 7.979 71.339 33.664 88.533 70.443 7.168 15.317 9.941 26.411 11.179 44.629 1.749 25.472-4.779 51.669-17.92 72.021-7.296 11.264-66.773 85.973-77.696 97.536-26.283 27.904-63.445 41.344-103.68 37.504zM533.504 226.774c5.291-1.963 12.757-6.4 16.555-9.813 11.691-10.496 74.581-90.24 79.403-100.651 11.52-24.917 0.64-59.179-23.68-74.539-14.464-9.131-19.115-9.557-98.347-9.003-83.712 0.597-80.981 0.128-98.56 16.725-21.248 20.096-25.429 52.139-9.941 75.947 6.229 9.557 66.688 84.309 72.917 90.155 5.376 5.035 15.787 10.965 23.083 13.227 8.96 2.731 28.587 1.707 38.571-2.048z" />
<glyph unicode="&#xe910;" glyph-name="airplane" d="M498.133 875.563c-39.339-7.040-82.219-53.035-98.219-105.387-4.565-14.933-4.565-15.104-5.547-86.443l-0.981-71.424-115.2-49.835c-63.36-27.392-118.656-51.584-122.837-53.76-24.747-12.928-43.52-35.755-54.101-65.835-4.779-13.653-4.779-13.696-4.821-58.88 0-50.176 0.811-55.083 11.904-72.533 17.28-27.136 50.859-37.76 83.669-26.453 7.893 2.731 192.512 82.005 199.253 85.589 2.816 1.493 2.987-1.621 2.987-54.059v-55.637l-53.547-54.059c-58.027-58.667-60.587-61.952-65.323-84.608-3.584-16.939-2.133-25.387 10.837-65.067 11.947-36.395 16.299-46.507 23.851-55.509 6.613-7.893 22.869-18.005 34.389-21.461 14.037-4.224 34.517-3.84 46.677 0.853 9.856 3.797 11.819 5.376 85.461 67.157 18.176 15.275 33.451 26.88 35.413 26.88s17.237-11.605 35.413-26.88c73.856-61.995 75.605-63.36 85.461-67.115 21.205-8.064 50.133-3.499 69.931 11.136 15.403 11.307 20.992 21.419 34.816 62.805 13.739 41.088 15.403 51.84 10.923 69.589-5.803 22.869-8.235 25.941-65.451 83.712l-53.376 53.931 0.427 54.485 0.469 54.528 93.867-40.619c51.627-22.315 98.859-42.368 104.96-44.587 34.731-12.629 68.352-2.688 86.229 25.387 11.093 17.451 11.904 22.357 11.904 72.533-0.043 45.056-0.043 45.269-4.779 58.709-10.709 30.379-30.805 54.955-54.955 67.115-3.755 1.92-56.747 25.003-117.76 51.285s-112.981 48.768-115.456 49.877l-4.565 2.091-0.683 69.376c-0.811 75.435-1.195 79.147-11.392 104.192-15.701 38.571-52.779 77.312-82.56 86.272-10.283 3.115-27.776 4.352-37.291 2.645zM524.075 807.552c14.592-9.259 30.635-31.317 37.461-51.584 3.157-9.387 3.371-14.763 3.371-79.829 0-40.064 0.725-73.728 1.749-79.019 2.219-11.947 11.349-26.581 20.693-33.28 4.096-2.944 60.416-28.16 125.184-56.021 64.768-27.904 121.088-52.352 125.184-54.357 8.832-4.395 15.701-11.819 21.973-23.851 4.48-8.704 4.608-9.771 5.163-43.051 0.64-37.888-0.384-43.179-8.192-42.069-2.304 0.299-53.12 21.675-112.981 47.445-68.437 29.483-112.555 47.573-118.955 48.768-22.059 4.096-42.539-6.187-52.992-26.709l-5.973-11.733-0.555-66.347c-0.597-72.149 0.341-84.224 7.765-101.205 3.968-9.045 10.88-16.725 57.856-64.043 29.312-29.568 54.144-55.979 55.211-58.709 1.621-4.309 0.512-8.96-8.576-36.267-10.368-31.061-12.416-34.731-19.456-34.731-1.493 0-24.021 17.877-50.048 39.765-26.027 21.845-50.133 41.856-53.547 44.416-13.653 10.283-40.32 15.531-57.941 11.392-17.579-4.096-25.771-9.728-77.056-52.864-27.989-23.552-52.224-42.709-54.059-42.709s-4.437 1.152-5.845 2.517c-3.243 3.285-21.589 58.24-21.589 64.811 0 4.267 7.552 12.629 52.651 58.027 73.003 73.515 69.12 63.829 68.224 169.472l-0.555 66.219-5.717 11.563c-4.181 8.491-7.808 13.141-13.653 17.408-15.275 11.179-29.568 13.568-47.445 7.893-5.504-1.749-57.216-23.595-114.944-48.512s-106.837-45.568-109.141-45.867c-7.723-1.067-8.789 4.267-8.235 41.216 0.469 31.915 0.64 33.664 4.992 42.923 9.045 19.285 7.851 18.603 114.133 64.469 52.992 22.912 109.696 47.403 125.995 54.485 32.597 14.123 40.619 20.053 48.299 35.627 3.968 8.107 4.011 8.661 4.907 85.803 0.896 74.667 1.067 78.037 4.693 87.765 10.112 27.307 34.859 55.211 49.109 55.509 2.944 0.043 8.533-2.005 12.843-4.736z" />
<glyph unicode="&#xe911;" d="M344.747 883.968c-173.739-9.088-263.893-85.931-285.739-243.584-4.821-34.645-6.016-77.867-6.016-213.717 0-192.171 2.56-224.981 22.101-283.733 32.939-98.688 104.363-152.576 224.725-169.472 32.384-4.523 80-5.845 212.181-5.845s179.797 1.323 212.181 5.845c105.387 14.805 171.648 56.917 210.091 133.632 20.565 40.96 31.616 90.496 35.115 157.141 2.176 41.344 2.176 283.52 0 324.864-2.688 50.987-8.491 85.419-20.395 121.045-26.027 77.867-75.648 127.531-153.259 153.429-36.779 12.245-69.419 17.749-121.344 20.48-36.437 1.92-292.437 1.835-329.643-0.085zM716.8 816.896c118.869-19.712 166.997-68.267 185.515-187.136 2.816-17.963 3.072-35.157 3.072-203.093s-0.256-185.131-3.072-203.093c-18.603-119.381-67.84-168.619-187.221-187.221-17.963-2.816-35.157-3.072-203.093-3.072s-185.131 0.256-203.093 3.072c-119.040 18.56-168.832 68.139-187.136 186.368-2.944 18.987-3.157 33.749-3.157 203.947 0 202.795-0.171 198.955 11.264 243.712 21.888 85.589 71.595 128.597 167.083 144.555 31.147 5.248 46.421 5.589 223.573 5.248 160.555-0.299 180.139-0.597 196.267-3.285z" />
<glyph unicode="&#xe912;" d="M501.589 759.467c-29.867-5.12-62.635-37.888-76.8-76.8-3.84-10.581-4.053-13.44-4.608-62.592-0.384-37.077-1.152-51.968-2.603-53.077-1.109-0.853-39.253-17.621-84.779-37.205-93.483-40.277-97.28-42.453-112.043-64.256-12.8-18.859-16.043-30.549-17.195-61.909-1.792-50.091 5.931-70.315 32.256-84.608 10.155-5.504 11.733-5.845 27.008-5.803h16.213l139.947 60.032 0.555-30.891 0.512-30.891-36.565-35.84c-20.139-19.712-38.571-38.528-40.917-41.813-6.357-8.704-11.477-25.515-11.477-37.589 0-7.765 2.005-16.597 7.893-34.603 13.696-41.899 19.883-51.627 38.699-60.843 19.669-9.643 39.168-10.283 55.808-1.749 3.285 1.664 21.973 16.555 41.515 33.067 19.584 16.512 36.309 30.037 37.248 30.037s17.579-13.568 36.992-30.123c41.216-35.2 47.701-38.955 66.859-38.741 21.888 0.256 40.661 9.856 52.267 26.709 3.541 5.163 9.131 18.944 15.275 37.547 9.259 28.117 9.643 29.909 8.747 42.752-1.579 23.296-5.888 29.781-49.323 73.771l-37.291 37.845 0.469 30.635 0.469 30.592 64.853-27.904c35.669-15.317 69.035-29.099 74.112-30.592 27.349-8.021 57.728 5.717 69.845 31.573 4.352 9.259 4.565 11.051 5.12 43.776 0.64 38.229-0.597 46.933-8.875 63.787-6.357 12.885-21.675 30.208-33.067 37.376-4.48 2.816-45.184 21.077-90.496 40.576l-82.347 35.456v45.739c0 56.32-2.091 68.096-16.427 92.587-22.571 38.485-56.533 59.349-87.851 53.973zM518.656 692.182c6.613-4.864 12.416-12.373 18.645-24.021l4.565-8.533 0.853-57.173c0.811-55.509 0.981-57.387 4.779-64.512 5.333-10.027 15.061-20.395 22.699-24.32 3.456-1.792 42.709-18.901 87.125-38.101 44.459-19.157 82.944-35.84 85.547-37.035s6.997-5.632 9.813-9.856c4.949-7.509 5.077-8.149 5.077-29.269v-21.632l-72.832 31.232c-40.064 17.195-77.099 32.128-82.261 33.195s-12.715 1.493-16.768 0.939c-14.763-2.005-31.147-13.653-38.613-27.52-3.584-6.613-3.712-8.619-3.712-64v-57.173l4.651-9.941c3.797-8.064 11.989-17.408 43.008-49.024l38.357-39.040-5.632-16.683c-3.072-9.216-5.931-17.749-6.357-19.029-0.469-1.493-12.8 7.936-33.963 26.027-38.656 32.981-48.256 38.699-67.115 39.893-14.891 0.939-27.52-2.219-38.699-9.728-4.181-2.859-21.803-17.152-39.168-31.787l-31.488-26.667-12.885 38.485 38.357 37.632c34.688 34.091 38.869 38.827 43.904 49.621l5.589 11.947v54.613c0 53.803-0.043 54.741-4.053 63.573-4.437 9.856-13.227 18.688-24.448 24.661-5.845 3.072-10.112 3.883-20.992 3.883l-13.653 0.043-74.325-32c-40.917-17.621-74.88-32-75.52-32-0.683 0-1.195 9.344-1.195 20.736 0 19.328 0.299 21.333 4.437 28.373 5.333 9.045 0.597 6.741 108.501 53.205 52.779 22.741 78.293 34.56 82.901 38.528 3.669 3.115 9.259 10.539 12.501 16.469l5.845 10.795 1.707 112.725 5.589 11.392c4.907 9.941 18.517 25.216 22.485 25.216 0.597 0 3.627-1.877 6.741-4.139z" />
<glyph unicode="&#xe913;" d="M331.093 883.968c-102.613-4.907-165.248-28.843-201.387-76.971-24.192-32.171-36.053-65.749-44.672-126.336-3.627-25.515-3.755-31.36-4.395-234.368-0.469-138.795-0.085-217.045 1.152-234.667 8.32-119.040 38.059-178.133 106.795-212.267 37.589-18.645 77.483-26.795 147.499-30.080 45.525-2.133 306.304-2.133 351.829 0 68.352 3.2 108.672 11.221 145.877 29.013 60.373 28.928 90.965 77.653 103.808 165.547 5.845 40.021 6.443 68.949 5.76 282.453-0.725 225.92-0.469 218.581-9.856 267.093-19.84 102.144-76.117 151.424-190.080 166.357-11.008 1.408-35.541 3.371-54.485 4.267-39.211 1.92-317.739 1.877-357.845-0.043zM712.533 819.115c80.768-6.827 122.368-27.221 143.104-70.016 9.472-19.541 15.403-41.856 20.224-75.819 3.499-24.661 3.669-32.811 4.352-223.573 0.427-127.616 0.043-208.64-1.109-228.011-3.413-56.235-10.069-89.899-23.168-116.736-19.456-39.851-51.968-58.24-121.216-68.608-18.816-2.816-36.779-3.072-221.867-3.072-184.448 0-203.179 0.256-222.72 3.072-106.411 15.232-136.192 52.651-145.067 182.315-2.176 32.128-2.176 385.621 0.043 417.92 7.765 114.347 33.664 155.563 109.184 173.781 14.421 3.499 45.995 8.235 62.293 9.344 22.229 1.536 377.344 0.981 395.947-0.597z" />
<glyph unicode="&#xe914;" d="M356.693 675.030c-38.443-7.765-75.904-39.595-87.808-74.709l-3.285-9.643-79.488-0.512c-75.861-0.469-79.701-0.683-85.248-3.925-10.709-6.315-12.971-11.179-12.971-28.16s2.261-21.845 12.971-28.16c5.547-3.243 9.387-3.456 85.291-3.925l79.531-0.512 2.859-9.045c8.192-26.112 40.448-59.264 67.456-69.376 21.973-8.277 25.387-8.448 176-8.448 152.661 0 155.008 0.128 177.28 9.173 27.691 11.264 56.747 41.259 65.835 68.053l3.285 9.643 79.488 0.512c75.861 0.469 79.701 0.683 85.248 3.925 10.709 6.315 12.971 11.179 12.971 28.16s-2.261 21.845-12.971 28.16c-5.547 3.243-9.387 3.456-85.589 3.925-66.603 0.427-79.787 0.939-79.787 2.901 0 1.28-3.627 9.515-8.107 18.261-14.72 28.928-43.52 52.907-74.667 62.165-9.429 2.816-21.76 3.072-158.72 3.413-117.163 0.299-150.827-0.085-159.573-1.877zM664.107 609.067c13.141-6.187 22.613-15.232 28.757-27.52 4.309-8.661 5.163-12.373 5.163-22.571 0-17.963-3.712-27.051-16.085-39.467-18.048-18.048-6.485-16.896-169.941-16.896-159.744 0-150.869-0.725-167.253 13.952-13.355 12.032-17.579 20.565-18.432 37.333-0.981 18.56 2.304 28.501 13.525 40.789 9.301 10.155 19.328 15.829 31.744 17.963 4.48 0.768 69.973 1.28 145.536 1.152l137.387-0.256 9.6-4.48z" />
<glyph unicode="&#xe915;" d="M228.437 884.054c-85.035-8.149-154.923-72.064-171.52-156.843-3.456-17.664-3.371-51.925 0.128-70.656 12.885-68.523 63.488-125.995 130.091-147.755 15.659-5.12 31.189-7.936 53.931-9.685l13.227-1.067v-144.512c0-89.771 0.683-149.931 1.792-158.72 4.736-38.016 27.52-69.675 62.208-86.528 19.285-9.344 28.117-11.392 49.493-11.392 29.696-0.043 53.888 9.685 75.989 30.549 19.413 18.304 29.867 37.163 34.005 61.44 1.493 8.661 1.877 83.2 1.493 290.688l-0.555 279.040-4.779 15.36c-17.408 55.723-59.392 95.061-114.901 107.733-13.653 3.115-105.557 4.779-130.603 2.347zM686.933 884.736c-34.048-3.456-56.32-11.904-82.219-31.104-26.069-19.328-43.861-45.355-54.784-80.171l-4.651-14.848-0.469-280.747c-0.512-312.491-1.152-294.144 11.136-319.104 4.736-9.6 9.984-16.512 20.864-27.52 24.021-24.235 47.531-34.389 79.403-34.347 21.376 0 30.208 2.048 49.493 11.392 35.157 17.067 57.856 49.237 62.379 88.491 0.853 7.68 1.621 78.635 1.621 157.653v143.616l13.227 1.067c22.741 1.749 38.272 4.565 53.931 9.685 66.731 21.803 116.565 78.464 130.219 148.096 3.285 16.811 3.285 53.504 0 70.315-15.317 78.208-74.923 138.112-153.728 154.539-8.704 1.792-27.051 2.645-65.835 3.072-29.568 0.341-56.832 0.256-60.587-0.085zM350.677 818.304c31.403-8.192 58.581-38.059 63.915-70.229 1.408-8.405 1.792-86.272 1.451-281.301-0.512-303.701 0.896-274.773-14.208-290.901-12.544-13.44-31.403-18.688-48.64-13.525-9.344 2.816-22.101 13.141-28.032 22.741l-5.163 8.363-0.853 174.208c-0.853 170.325-0.939 174.336-4.267 180.011-7.851 13.312-15.147 15.36-55.979 15.445-34.645 0.085-46.891 2.432-69.461 13.269-14.208 6.827-18.347 9.941-33.451 25.045-15.019 15.019-18.304 19.371-25.131 33.451-9.387 19.328-13.099 35.541-13.099 57.173s3.712 37.845 13.099 57.173c6.827 14.080 10.112 18.432 25.131 33.451 14.976 15.019 19.371 18.304 33.451 25.173 24.661 11.947 29.952 12.672 94.805 12.885 45.568 0.128 58.283-0.341 66.432-2.432zM806.059 818.219c6.741-1.493 19.584-6.229 28.501-10.496 14.208-6.827 18.347-9.941 33.451-25.045s18.219-19.243 25.045-33.451c9.515-19.883 13.184-35.712 13.184-57.173s-3.669-37.291-13.184-57.173c-6.827-14.208-9.941-18.347-25.045-33.451s-19.243-18.219-33.451-25.045c-22.571-10.837-34.816-13.184-69.461-13.269-40.832-0.085-48.128-2.133-55.979-15.445-3.328-5.675-3.413-9.685-4.267-180.011l-0.853-174.208-5.163-8.363c-5.931-9.6-18.688-19.925-28.032-22.741-16.853-5.035-35.499 0-48.256 13.013-15.531 15.787-14.080-13.397-14.592 291.413-0.341 192.128 0.043 272.939 1.408 281.088 5.333 32.213 32.128 61.995 63.232 70.357 13.995 3.755 116.395 3.755 133.461 0z" />
<glyph unicode="&#xe916;" d="M234.709 762.71c-5.589-0.853-14.421-3.584-19.627-6.101-12.075-5.888-27.136-20.949-32.981-32.981-8.96-18.517-8.96-44.672 0-63.147 5.845-12.032 20.907-27.093 32.939-32.939 16.725-8.107 41.429-9.173 52.053-2.219 10.368 6.784 14.293 28.757 7.723 43.221-3.925 8.747-10.965 13.312-22.741 14.891-10.197 1.365-13.141 3.285-13.141 8.619 0 5.376 2.987 7.296 14.037 9.045 5.291 0.811 11.648 2.816 14.123 4.48 10.752 7.040 14.464 29.44 7.253 43.691-6.272 12.373-18.56 16.555-39.637 13.44zM767.701 763.008c-9.131-1.835-14.933-6.272-18.56-14.336-6.528-14.336-2.56-36.352 7.765-43.093 2.475-1.664 8.832-3.669 14.123-4.48 11.051-1.749 14.037-3.669 14.037-9.045 0-5.333-2.944-7.253-13.141-8.619-11.776-1.579-18.816-6.144-22.741-14.891-6.571-14.464-2.645-36.437 7.723-43.221 10.624-6.955 35.328-5.888 52.053 2.219 12.032 5.845 27.093 20.907 32.939 32.939 12.16 25.088 7.979 57.131-10.197 78.421-15.189 17.749-43.051 28.245-64 24.107zM353.92 158.848c-9.771-1.621-15.744-6.016-19.499-14.336-3.029-6.656-3.243-12.203-3.285-80.597-0.043-72.789 0-73.515 3.797-81.024 5.376-10.581 12.032-13.995 27.605-14.080s22.4 3.328 27.861 14.080c3.797 7.509 3.84 8.235 3.84 81.109s-0.043 73.6-3.84 81.109c-2.091 4.139-6.144 8.832-8.96 10.411-6.272 3.456-18.091 4.907-27.52 3.328zM652.587 158.848c-9.771-1.621-15.744-6.016-19.499-14.336-3.029-6.656-3.243-12.203-3.285-80.597-0.043-72.789 0-73.515 3.797-81.024 5.376-10.581 12.032-13.995 27.605-14.080s22.4 3.328 27.861 14.080c3.797 7.509 3.84 8.235 3.84 81.109s-0.043 73.6-3.84 81.109c-2.091 4.139-6.144 8.832-8.96 10.411-6.272 3.456-18.091 4.907-27.52 3.328z" />
<glyph unicode="&#xe917;" d="M483.84 713.344c-158.592-10.112-299.477-112.811-358.144-261.077-16.299-41.088-25.557-82.859-28.501-128.469-0.853-13.355-1.579-84.267-1.579-157.611l-0.043-133.333-11.819-1.152c-20.821-2.048-29.653-11.477-29.653-31.701 0-17.835 7.467-27.861 22.955-30.848 4.096-0.768 199.808-1.451 434.944-1.451s430.848 0.683 434.944 1.451c15.488 2.987 22.955 13.013 22.955 30.848 0 20.139-8.832 29.653-29.483 31.701l-11.691 1.152-0.725 151.253c-0.725 143.232-0.939 152.448-4.309 173.44-12.032 74.837-36.395 133.163-79.957 191.403-83.499 111.616-218.709 173.397-359.893 164.395zM553.003 648.448c102.528-12.672 193.664-68.437 251.477-153.941 23.168-34.219 44.117-83.968 52.139-123.691 6.613-32.597 6.955-42.453 6.955-192v-146.389h-703.147v146.389c0 149.547 0.341 159.403 6.955 192 10.283 50.859 38.997 111.189 71.253 149.717 12.885 15.36 32.683 35.371 47.232 47.744 49.749 42.24 116.693 71.552 182.784 80 16.853 2.176 67.371 2.261 84.352 0.171z" />
<glyph unicode="&#xe918;" d="M502.912 884.139c-8.064-1.621-14.635-6.357-19.072-13.909-3.072-5.248-3.413-8.875-3.413-38.229s0.341-32.981 3.413-38.229c1.877-3.2 5.419-7.296 7.893-9.131 9.643-7.168 30.891-7.168 40.533 0 9.131 6.827 11.008 12.672 11.819 37.205 1.323 39.296-1.707 51.883-14.165 58.923-6.315 3.584-18.304 5.077-27.008 3.371zM162.389 800.214c-8.235-2.432-21.76-16.597-24.107-25.173-3.797-14.165-1.237-18.304 31.275-50.816 24.576-24.576 30.421-29.611 36.523-31.232 10.837-2.859 19.541 0.085 29.525 10.069s12.971 18.688 10.069 29.483c-1.621 5.931-6.699 12.032-28.672 34.261-14.677 14.848-29.013 28.459-31.829 30.165-6.656 4.096-15.616 5.376-22.784 3.243zM844.8 800.171c-4.309-1.237-14.037-9.813-35.243-31.019-32.512-32.555-35.072-36.693-31.275-50.859 2.56-9.429 15.915-22.784 25.344-25.344 14.165-3.797 18.304-1.237 50.816 31.275 24.661 24.619 29.611 30.421 31.232 36.565 5.803 21.803-19.072 45.781-40.875 39.381z" />
<glyph unicode="&#xe919;" d="M76.245 756.139c-14.549-2.859-22.144-13.397-22.144-30.805 0-19.712 8.832-29.568 28.288-31.531 5.845-0.597 203.392-0.853 438.997-0.555 424.832 0.512 428.416 0.555 434.176 3.925 11.648 6.869 16.896 20.395 13.952 36.053-1.749 9.344-6.059 15.616-13.952 20.267-5.76 3.371-9.088 3.413-439.296 3.669-238.421 0.128-436.437-0.341-440.021-1.024z" />
<glyph unicode="&#xe91a;" d="M210.603 750.891c-7.339-2.261-13.995-9.387-16.085-17.237-1.195-4.437-1.621-60.501-1.237-170.027 0.512-151.637 0.768-164.224 3.627-174.507 12.117-43.264 40.619-68.352 87.253-76.757 28.587-5.163 104.363-3.584 128 2.645 37.461 9.856 63.829 35.627 73.387 71.68 5.333 20.011 6.144 48.085 5.632 197.845-0.512 145.451-0.597 148.608-3.968 154.453-2.048 3.541-6.528 7.552-11.008 9.813-15.659 7.936-37.76 3.115-45.227-9.813-3.371-5.845-3.456-9.259-4.309-169.813-0.939-174.037-0.64-168.619-8.917-180.523-1.835-2.603-6.144-6.187-9.6-7.936-12.075-6.144-24.576-7.296-72.832-6.571-51.029 0.768-56.363 1.707-66.987 12.032-11.776 11.392-11.307 4.608-12.288 185.557-0.853 155.819-1.024 163.2-4.096 168.32-1.792 2.901-5.547 6.656-8.363 8.32-6.016 3.541-25.003 4.992-32.981 2.517zM569.984 748.8c-4.48-2.261-8.96-6.272-11.008-9.813-3.413-5.931-3.456-8.576-3.968-261.973-0.469-257.877-0.043-282.283 5.632-303.659 10.453-39.467 37.675-63.915 81.92-73.685 11.264-2.475 22.187-2.987 62.293-2.987 43.733 0 50.261 0.341 64.597 3.669 43.435 10.027 68.736 34.176 79.872 76.288 3.029 11.392 3.157 24.661 3.157 285.013 0 264.533-0.085 273.237-3.2 278.4-5.419 8.917-12.032 11.733-27.52 11.733s-22.101-2.816-27.52-11.733c-3.072-5.163-3.243-14.635-4.053-274.987-0.981-303.531 0.043-281.429-13.653-293.163-11.221-9.557-15.104-10.24-65.664-11.051-67.541-1.067-78.891 2.176-88.107 25.173-2.005 4.992-2.517 49.792-3.243 276.48-0.853 267.648-0.896 270.549-4.309 276.48-4.736 8.235-15.915 13.653-28.117 13.653-6.485 0-11.947-1.237-17.109-3.84z" />
<glyph unicode="&#xe91b;" d="M272.213 777.088c-29.952-3.755-54.443-14.464-70.869-31.104-12.928-13.099-20.437-26.88-25.984-47.957l-3.84-14.507v-513.707l3.84-14.507c8.491-32.085 25.301-53.632 51.627-66.176 23.424-11.136 33.707-12.843 84.011-13.653 48.768-0.811 66.048 0.683 88.021 7.595 35.413 11.093 57.131 35.627 66.261 74.795 3.029 13.013 3.2 25.856 3.2 268.8s-0.171 255.787-3.2 268.8c-10.837 46.635-40.021 72.789-89.472 80.256-15.275 2.304-88.363 3.285-103.595 1.365zM365.227 713.259c21.888-3.541 31.573-10.624 36.949-27.008 3.029-9.088 3.157-21.248 3.157-259.584s-0.128-250.496-3.157-259.584c-7.765-23.637-22.485-28.8-82.176-28.8-39.467 0-52.693 1.621-65.579 8.107-11.392 5.717-16.469 14.635-18.901 33.152-2.133 16.597-2.133 477.653 0 494.251 2.432 18.475 7.509 27.435 18.901 33.195 5.077 2.56 13.483 5.376 18.645 6.187 13.397 2.176 79.019 2.219 92.16 0.085zM634.027 691.755c-50.901-6.357-82.091-30.677-94.848-73.941-3.584-12.203-3.797-17.024-4.992-101.973-0.683-49.024-0.683-129.28 0.043-178.347 1.067-75.605 1.707-90.709 4.139-99.157 7.424-25.984 19.925-44.203 39.040-57.003 24.704-16.512 46.72-20.907 105.259-20.907s80.555 4.395 105.259 20.907c21.205 14.165 33.792 34.133 40.064 63.573 3.115 14.549 3.285 24.064 3.285 181.76s-0.171 167.211-3.285 181.76c-10.155 47.573-38.912 73.685-90.24 82.048-13.824 2.219-88.619 3.157-103.723 1.28zM740.309 625.664c12.16-3.883 19.925-11.093 23.723-22.016 2.944-8.32 3.115-18.987 3.115-176.981 0-181.291 0.299-175.104-9.003-187.52-9.557-12.8-29.568-16.341-85.333-15.147-43.093 0.939-52.309 2.645-62.592 11.691-3.541 3.115-7.040 8.576-8.917 13.995-2.944 8.32-3.115 18.987-3.115 176.981s0.171 168.661 3.115 176.981c4.992 14.379 15.019 21.205 35.968 24.491 4.779 0.768 27.904 1.152 51.371 0.896 34.261-0.427 44.459-1.067 51.669-3.371z" />
<glyph unicode="&#xe91c;" d="M76.245 457.515c-14.635-2.987-22.144-13.44-22.144-30.848 0-19.669 8.832-29.525 28.288-31.573 5.845-0.64 34.432-0.896 63.531-0.555 49.237 0.512 53.291 0.811 58.709 3.968 7.893 4.651 12.203 10.923 13.952 20.267 2.944 15.659-2.304 29.184-13.952 36.053-5.461 3.2-9.173 3.413-63.829 3.712-31.915 0.171-60.971-0.299-64.555-1.024zM460.245 457.515c-14.635-2.987-22.144-13.44-22.144-30.848 0-19.669 8.832-29.525 28.288-31.616 5.845-0.597 30.592-0.853 54.997-0.555 40.704 0.555 44.843 0.896 50.176 4.011 7.893 4.651 12.203 10.923 13.952 20.267 2.944 15.659-2.304 29.184-13.952 36.053-5.419 3.2-9.173 3.413-55.296 3.712-27.221 0.171-52.437-0.299-56.021-1.024zM815.317 457.515c-16.384-3.328-22.571-11.776-22.571-30.848 0-15.275 4.053-23.381 14.123-28.416 5.888-2.901 11.563-3.157 74.624-3.157 65.195 0 68.523 0.171 74.069 3.413 7.893 4.651 12.203 10.923 13.952 20.267 2.944 15.659-2.304 29.184-13.952 36.053-5.504 3.243-9.173 3.413-69.803 3.712-35.2 0.128-66.901-0.299-70.443-1.024z" />
<glyph unicode="&#xe91d;" d="M200.235 883.968c-7.595-2.347-15.531-10.837-17.109-18.347-0.768-3.456-1.365-202.155-1.365-441.515 0-432.128 0.043-435.243 3.413-441.003 6.315-10.709 11.179-12.971 28.16-12.971s21.845 2.261 28.16 12.971c3.371 5.76 3.413 8.875 3.413 443.563 0 423.040-0.085 437.973-3.157 444.117-4.48 8.96-12.672 13.568-25.515 14.293-5.845 0.299-13.013-0.171-16-1.109z" />
<glyph unicode="&#xe91e;" d="M199.125 742.23c-9.557-5.077-13.781-15.403-12.672-30.976 0.939-13.269 4.011-18.773 13.397-24.32 5.675-3.328 9.728-3.456 168.789-4.309 117.717-0.64 164.565-1.451 168.576-2.901 15.488-5.461 22.443-14.251 25.941-32.768 2.261-11.861 2.261-87.381 0-99.243-3.499-18.517-10.453-27.307-25.941-32.768-4.011-1.451-50.859-2.261-168.576-2.901-159.061-0.853-163.115-0.981-168.789-4.309-9.387-5.547-12.459-11.051-13.397-24.32-1.152-15.915 3.115-25.984 13.099-31.104 6.997-3.541 7.467-3.541 173.824-3.029 185.6 0.555 173.611-0.213 199.467 12.416 22.997 11.221 39.168 30.080 47.317 55.083 7.893 24.32 8.619 31.061 8.619 80.555s-0.725 56.235-8.619 80.555c-8.149 25.003-24.32 43.861-47.317 55.083-25.856 12.629-13.781 11.904-199.936 12.331-165.461 0.427-167.339 0.384-173.781-3.072zM204.203 381.526c-13.013-4.651-18.176-13.44-18.133-30.805 0.043-12.331 4.992-22.059 13.397-26.368 6.869-3.499 7.851-3.499 265.941-3.541 157.056-0.043 264.107-0.725 271.829-1.707 22.059-2.859 32.768-10.752 38.016-27.947 2.987-9.813 2.987-103.168 0-112.981-5.248-17.195-15.957-25.088-38.016-27.947-7.723-0.981-114.773-1.664-271.829-1.707-258.261-0.043-259.072-0.043-265.941-3.584-9.899-5.035-14.165-15.147-13.013-31.019 0.939-13.269 4.011-18.773 13.397-24.32 5.717-3.371 9.344-3.413 267.776-3.883 266.837-0.512 278.571-0.299 300.373 5.888 34.048 9.643 58.155 34.517 68.181 70.571 9.045 32.469 9.045 112.512 0 144.981-12.245 43.947-41.771 68.309-90.923 75.008-9.003 1.237-98.347 1.792-273.92 1.749-216.235-0.043-261.675-0.469-267.136-2.389z" />
<glyph unicode="&#xe91f;" d="M797.568 883.968c-7.595-2.347-15.531-10.837-17.109-18.347-0.768-3.456-1.365-202.155-1.365-441.515 0-432.128 0.043-435.243 3.413-441.003 6.315-10.709 11.179-12.971 28.16-12.971s21.845 2.261 28.16 12.971c3.371 5.76 3.413 8.875 3.413 443.563 0 423.040-0.085 437.973-3.157 444.117-4.48 8.96-12.672 13.568-25.515 14.293-5.845 0.299-13.013-0.171-16-1.109z" />
<glyph unicode="&#xe920;" d="M481.28 743.211c-44.8-9.131-72.021-35.883-81.92-80.427-6.784-30.507-6.229-106.88 0.981-135.424 7.595-30.037 25.515-53.376 50.219-65.408 26.581-12.928 14.080-12.117 200.064-12.672 163.84-0.512 166.955-0.469 173.483 2.901 10.069 5.12 14.549 15.531 13.44 31.104-0.939 13.397-3.968 18.901-13.397 24.448-5.675 3.328-9.728 3.456-168.789 4.309-117.717 0.64-164.565 1.451-168.576 2.901-24.107 8.533-27.691 19.157-27.691 82.389s3.584 73.856 27.691 82.389c4.011 1.451 50.859 2.261 168.576 2.901 159.061 0.853 163.115 0.981 168.789 4.309 9.429 5.547 12.459 11.051 13.397 24.448 1.109 15.488-3.371 25.984-13.355 31.061-6.4 3.285-10.667 3.371-169.173 3.2-128-0.128-164.992-0.64-173.739-2.432zM277.333 382.166c-47.701-6.784-77.483-31.744-89.515-75.008-9.173-33.024-9.173-111.957 0-144.981 10.027-36.011 34.133-60.928 68.181-70.571 21.803-6.187 33.536-6.4 300.373-5.888 258.432 0.469 262.059 0.512 267.776 3.883 9.429 5.547 12.459 11.051 13.397 24.448 1.109 15.488-3.371 25.984-13.355 31.061-6.443 3.328-11.435 3.371-265.6 3.413-157.056 0.043-264.107 0.725-271.829 1.707-22.059 2.859-32.768 10.752-38.016 27.947-2.987 9.813-2.987 103.168 0 112.981 5.248 17.195 15.957 25.088 38.016 27.947 7.723 0.981 114.773 1.664 271.829 1.707 254.165 0.043 259.157 0.085 265.6 3.413 9.984 5.077 14.464 15.573 13.355 31.061-0.939 13.397-3.968 18.901-13.397 24.448-5.717 3.371-9.088 3.413-271.189 3.627-145.963 0.128-269.995-0.427-275.627-1.195z" />
<glyph unicode="&#xe921;" d="M407.040 745.728c-62.293-0.896-74.88-1.493-83.371-4.011-45.355-13.355-69.291-42.88-76.203-94.037-3.115-23.168-1.536-100.139 2.432-116.907 9.387-40.021 33.109-65.707 70.955-76.928 12.16-3.627 16.939-3.84 94.72-4.992 45.056-0.64 122.624-0.811 172.373-0.427 77.952 0.64 92.587 1.195 105.813 3.797 47.019 9.344 73.685 38.613 82.048 90.027 3.285 20.395 3.285 89.771 0 110.165-6.699 41.259-25.515 68.437-57.301 82.731-20.949 9.429-31.317 10.283-139.093 11.008-54.443 0.341-132.011 0.171-172.373-0.427zM689.451 678.784c20.949-8.363 25.515-22.997 25.515-81.451 0-58.837-4.864-74.027-26.155-81.451-8.107-2.816-20.139-3.029-176.811-3.029-157.995 0-168.661 0.171-176.981 3.115-11.179 3.883-18.219 11.733-22.229 24.619-2.603 8.405-3.029 16.597-3.029 56.747s0.427 48.341 3.029 56.747c5.077 16.341 14.635 24.149 33.664 27.435 2.347 0.384 78.763 0.64 169.813 0.512 154.581-0.213 166.059-0.427 173.184-3.243zM255.147 382.123c-39.125-5.717-66.176-24.107-80.981-55.040-11.52-24.149-12.885-33.92-12.885-92.416 0-58.752 1.323-68.181 13.184-93.013 12.587-26.411 33.92-43.008 66.517-51.669l14.165-3.797h256c243.755 0 256.64 0.171 269.653 3.2 39.211 9.131 63.744 30.848 74.795 66.261 2.432 7.808 5.205 20.181 6.187 27.52 2.304 17.237 2.304 85.76 0 102.997-3.328 25.088-12.629 48.043-25.856 63.787-5.76 6.912-22.229 18.432-32.171 22.613-26.709 11.179-7.424 10.453-285.781 10.752-138.923 0.171-257.195-0.384-262.827-1.195zM772.48 316.8c22.869-8.277 27.904-23.168 27.904-82.133s-5.035-73.856-27.904-82.133c-8.363-3.072-19.584-3.243-250.24-3.712-154.368-0.299-246.571 0.128-255.616 1.237-20.181 2.475-29.013 7.253-34.901 19.029-6.485 12.885-8.107 26.112-8.107 65.579s1.621 52.693 8.107 65.579c3.755 7.509 6.229 10.069 12.8 13.355 4.523 2.219 12.971 4.693 18.773 5.461 5.845 0.768 120.832 1.323 255.531 1.195 234.368-0.256 245.291-0.384 253.653-3.456z" />
<glyph unicode="&#xe922;" d="M502.912 884.139c-8.064-1.621-14.635-6.357-19.072-13.909-3.243-5.547-3.413-8.875-3.413-74.069 0-76.715 0.043-77.099 12.544-84.864 8.917-5.547 29.141-5.547 38.059 0 12.16 7.552 12.459 9.344 13.099 75.477 0.64 66.688-0.043 77.696-5.376 85.589-6.741 10.027-20.907 14.677-35.84 11.776zM502.912 500.139c-8.064-1.621-14.635-6.357-19.072-13.909-3.2-5.461-3.413-8.875-3.413-59.563s0.213-54.101 3.413-59.563c6.869-11.648 20.395-16.896 36.053-13.952 9.344 1.749 15.616 6.059 20.267 13.952 3.115 5.333 3.456 9.472 4.011 50.176 0.64 51.627-0.256 63.403-5.419 71.083-6.741 10.027-20.907 14.677-35.84 11.776zM502.912 133.206c-8.064-1.621-14.635-6.357-19.072-13.909-3.243-5.504-3.413-8.875-3.413-68.096s0.171-62.592 3.413-68.096c6.869-11.648 20.395-16.896 36.053-13.952 9.344 1.749 15.616 6.059 20.267 13.952 3.157 5.419 3.456 9.472 3.968 58.709 0.683 60.501-0.085 71.808-5.376 79.616-6.741 10.027-20.907 14.677-35.84 11.776z" />
<glyph unicode="&#xe923;" d="M368.213 585.344c-43.648-5.248-81.579-37.12-96.469-81.024l-4.651-13.653v-256l4.651-13.653c6.272-18.389 15.104-32.768 28.544-46.421 13.056-13.269 27.349-22.955 41.344-28.075l9.941-3.627 0.043-52.224c0-58.965 1.365-69.845 10.581-85.163 7.040-11.648 20.821-24.448 32.469-30.037 34.347-16.597 76.288-3.541 96.469 30.037 9.131 15.189 10.581 26.368 10.581 82.816l0.043 49.92h20.48l0.043-49.92c0-56.448 1.451-67.627 10.581-82.816 20.181-33.579 62.123-46.635 96.469-30.037 11.648 5.589 25.429 18.389 32.469 30.037 9.216 15.317 10.581 26.197 10.581 85.163l0.043 52.224 9.941 3.627c13.995 5.12 28.288 14.805 41.344 28.075 13.44 13.653 22.272 28.032 28.544 46.421l4.651 13.653v256l-4.651 13.653c-12.971 38.315-43.691 67.669-82.389 78.805-9.301 2.688-23.296 2.987-150.187 3.285-76.971 0.171-145.109-0.299-151.467-1.067zM657.664 519.51c10.24-3.499 24.619-16.555 30.165-27.349l4.224-8.32v-242.347l-4.139-8.064c-5.973-11.733-17.877-22.869-28.672-26.923-8.875-3.328-13.184-3.413-147.243-3.413s-138.368 0.085-147.243 3.413c-10.837 4.053-23.381 15.829-28.971 27.179l-3.84 7.808-0.469 118.485c-0.512 137.6-1.451 129.067 15.659 146.176 16.939 16.939 5.248 15.787 164.139 15.957 122.795 0.128 139.264-0.171 146.389-2.603zM436.907 88.448c0-43.904-0.341-50.133-2.816-52.907-3.541-3.883-10.411-4.011-14.549-0.299-2.901 2.603-3.115 6.571-3.115 52.907v50.091h20.48v-49.792zM607.573 88.448c0-43.904-0.341-50.133-2.816-52.907-3.541-3.883-10.411-4.011-14.549-0.299-2.901 2.603-3.115 6.571-3.115 52.907v50.091h20.48v-49.792z" />
<glyph unicode="&#xe924;" d="M491.819 909.483c-46.507-4.139-93.184-27.093-126.635-62.293-31.104-32.725-49.451-72.747-54.699-119.424-4.352-38.912 4.309-65.963 28.928-90.283 12.885-12.715 24.405-19.925 39.893-25.003l12.373-4.053h242.347l11.093 4.011c16.213 5.803 28.501 13.867 41.131 27.008 23.808 24.789 31.531 49.92 27.221 88.619-7.936 71.509-49.493 130.816-113.493 162.048-22.869 11.179-44.757 17.195-70.912 19.499-10.795 0.939-20.011 1.621-20.48 1.493s-8.021-0.853-16.768-1.621zM550.997 841.472c35.584-10.197 68.821-38.272 86.187-72.875 10.88-21.675 16.213-58.411 10.624-73.045-3.456-9.088-15.573-20.48-23.381-22.059-6.955-1.408-217.899-1.408-224.853 0-7.808 1.579-19.925 12.971-23.381 22.059-2.347 6.187-2.731 10.795-1.877 23.424 2.304 33.92 13.611 59.264 37.76 84.651 21.589 22.699 45.525 35.712 75.733 41.259 13.696 2.475 49.152 0.555 63.189-3.413zM157.909 542.507c-14.165-2.048-27.221-9.045-39.467-21.12-22.4-22.059-22.827-24.661-22.827-137.387 0-99.541 0.555-105.813 10.581-122.496 7.040-11.648 20.821-24.448 32.469-30.037 34.347-16.597 76.288-3.541 96.469 30.037 10.027 16.683 10.581 22.955 10.581 122.496 0 97.707-0.64 105.643-9.557 120.832-16.64 28.416-45.739 42.411-78.251 37.675zM840.576 542.507c-14.165-2.048-27.221-9.045-39.467-21.12-22.4-22.059-22.827-24.661-22.827-137.387 0-99.541 0.555-105.813 10.581-122.496 7.040-11.648 20.821-24.448 32.469-30.037 34.347-16.597 76.288-3.541 96.469 30.037 10.027 16.683 10.581 22.955 10.581 122.496 0 97.707-0.64 105.643-9.557 120.832-16.64 28.416-45.739 42.411-78.251 37.675zM177.792 476.758c2.944-2.688 3.115-7.808 3.115-92.459 0-81.024-0.256-89.941-2.816-92.757-3.541-3.883-10.411-4.011-14.549-0.299-2.944 2.688-3.115 7.808-3.115 92.459 0 81.024 0.256 89.941 2.816 92.757 3.541 3.883 10.411 4.011 14.549 0.299zM860.459 476.758c2.944-2.688 3.115-7.808 3.115-92.459 0-81.024-0.256-89.941-2.816-92.757-3.541-3.883-10.411-4.011-14.549-0.299-2.944 2.688-3.115 7.808-3.115 92.459 0 81.024 0.256 89.941 2.816 92.757 3.541 3.883 10.411 4.011 14.549 0.299z" />
<glyph unicode="&#xe925;" d="M492.373 646.742c-84.779-6.955-158.592-63.616-188.501-144.768-9.088-24.619-12.587-45.525-12.587-75.307 0-39.211 7.211-69.077 24.875-103.040 29.739-57.131 90.453-102.656 151.893-113.877l11.52-2.133v-77.355c0-42.539-0.384-77.355-0.853-77.355s-71.083 35.115-156.885 78.037l-156.075 77.995-0.555 66.645c-0.469 63.317-0.683 66.944-4.011 73.429-5.419 10.496-15.275 14.933-31.189 14.037-13.312-0.768-18.261-3.2-24.96-12.117-3.413-4.608-3.499-6.955-4.011-86.016-0.512-86.827-0.469-87.168 8.021-96.555 2.987-3.243 66.56-36.011 191.317-98.603 102.784-51.541 189.952-95.403 193.707-97.536 5.12-2.859 9.6-3.797 17.92-3.797s12.8 0.939 17.92 3.797c3.755 2.133 90.965 46.037 193.835 97.579 198.741 99.627 196.267 98.219 198.699 111.488 0.555 3.072 0.811 41.429 0.512 85.248-0.512 77.397-0.597 79.787-4.011 84.395-6.699 8.917-11.648 11.349-24.96 12.117-15.915 0.896-25.771-3.541-31.189-14.037-3.328-6.485-3.541-10.112-4.011-73.429l-0.555-66.645-156.075-77.995c-85.803-42.923-156.416-78.037-156.885-78.037s-0.853 34.816-0.853 77.355v77.355l11.093 2.048c47.019 8.661 96.555 38.443 127.147 76.501 24.832 30.848 39.808 62.848 47.147 100.736 3.84 19.883 3.925 57.557 0.128 78.336-12.715 70.059-57.685 129.365-121.515 160.171-19.456 9.429-31.957 13.611-53.12 17.749-20.395 4.011-42.325 5.248-62.933 3.584zM552.107 578.774c42.667-11.179 80.043-41.643 99.84-81.28 13.056-26.24 15.957-39.083 15.957-70.827s-2.901-44.587-15.957-70.827c-19.413-38.869-53.376-67.2-96.512-80.469-14.037-4.309-17.579-4.693-43.435-4.693-25.899 0-29.397 0.384-43.52 4.736-52.565 16.128-91.691 55.296-107.733 107.819-4.267 13.995-4.651 17.621-4.651 43.435s0.384 29.44 4.651 43.435c17.877 58.539 65.493 101.163 125.056 111.915 14.208 2.56 51.029 0.725 66.304-3.243z" />
<glyph unicode="&#xe926;" d="M502.613 883.414c-12.587-4.139-386.219-192-392.107-197.163-9.941-8.747-10.069-9.941-9.472-98.603 0.512-78.251 0.597-80.64 4.011-85.248 6.827-9.131 11.989-11.648 25.173-12.245 15.701-0.725 25.643 3.84 30.976 14.165 3.328 6.485 3.541 10.112 4.011 73.429l0.555 66.645 346.24 173.099 346.24-173.099 0.555-66.645c0.469-63.317 0.683-66.944 4.011-73.429 5.333-10.325 15.275-14.891 30.976-14.165 13.184 0.597 18.347 3.115 25.173 12.245 3.413 4.608 3.499 6.997 4.011 84.395 0.299 43.819 0.043 82.219-0.512 85.291-2.475 13.397 0.085 11.989-206.805 115.115-106.837 53.291-196.949 97.195-200.235 97.664-3.285 0.427-9.045-0.213-12.8-1.451z" />
<glyph unicode="&#xe927;" d="M357.547 624.598c-86.955-8.832-170.155-81.536-196.224-171.477-9.6-33.067-11.861-51.243-11.861-94.72 0-42.752 1.792-60.032 10.368-98.987 18.475-84.053 67.328-177.365 123.861-236.501 19.328-20.224 33.664-31.189 53.376-40.789 21.717-10.624 33.792-13.483 56.32-13.44 23.637 0.085 35.371 2.901 66.645 16 31.659 13.227 44.587 15.915 72.363 14.976 23.168-0.811 32.939-3.456 64.256-17.408 29.653-13.227 63.104-17.323 87.723-10.795 14.763 3.925 39.211 16.213 52.907 26.581 40.107 30.421 93.312 104.235 125.355 174.037 12.672 27.563 14.976 35.456 12.715 43.691-2.645 9.557-7.808 14.208-24.789 22.272-21.547 10.283-33.536 18.645-46.293 32.299-23.595 25.216-35.029 51.2-37.76 85.76-2.347 29.867 0.853 47.019 13.525 73.131 10.795 22.144 24.96 37.931 47.445 52.779 21.333 14.080 24.448 17.493 25.429 27.989 1.109 11.307-3.541 21.248-17.024 36.437-21.291 24.021-48.939 44.928-77.269 58.453-31.915 15.232-53.333 20.053-88.747 19.968-32.085-0.043-53.973-4.352-90.667-17.749-14.208-5.205-31.872-10.795-39.253-12.416-17.963-4.011-28.629-2.176-74.88 12.928-49.195 16-75.776 20.224-107.52 16.981zM406.187 558.166c7.979-1.792 27.093-7.509 42.496-12.715 40.491-13.739 57.259-16.981 81.877-15.915 22.741 1.024 32.085 3.243 67.627 16.171 14.080 5.12 30.976 10.539 37.547 12.032 17.152 3.883 54.571 3.84 69.12-0.128 15.104-4.096 42.923-18.176 55.808-28.245l10.581-8.235-10.368-10.112c-29.355-28.629-49.963-68.011-57.131-109.056-3.968-22.699-2.389-61.056 3.371-83.2 10.453-39.936 24.96-65.707 53.205-94.464 15.275-15.531 25.088-23.552 39.808-32.512 2.261-1.408-18.56-38.485-37.76-67.2-34.731-51.968-62.464-80.128-87.765-89.045-7.637-2.688-12.715-3.328-22.656-2.731-11.093 0.64-16.341 2.261-39.296 12.075-38.101 16.256-50.261 18.944-86.144 18.901-38.656-0.085-49.493-2.603-96.427-22.272-18.816-7.893-20.309-8.235-35.925-8.235-15.488 0-16.981 0.341-29.739 6.656-43.093 21.291-106.197 114.944-132.096 196.053-19.925 62.421-24.661 135.509-12.331 189.312 9.856 42.923 37.675 82.645 76.117 108.8 36.181 24.619 72.32 32.512 110.080 24.064z" />
<glyph unicode="&#xe928;" d="M668.16 880.64c-22.144-3.371-45.781-11.989-68.096-24.875-52.224-30.165-85.717-73.003-101.888-130.432-3.499-12.459-4.096-18.219-4.096-40.96 0-24.789 0.256-26.965 4.267-34.987 7.808-15.573 19.84-19.797 46.805-16.469 29.909 3.669 54.571 12.928 80.427 30.123 57.557 38.315 96.384 116.053 90.155 180.608-2.091 21.931-5.589 29.525-16.043 34.859-7.851 4.011-15.573 4.523-31.531 2.133zM649.216 804.267c-7.125-30.208-27.264-63.061-49.536-80.811-10.837-8.619-34.517-22.016-38.955-22.016-5.205 0 6.187 31.275 18.133 49.792 7.936 12.245 24.448 29.952 35.541 38.101 7.808 5.717 32.213 19.541 34.603 19.584 0.725 0.043 0.811-2.091 0.213-4.651z" />
<glyph unicode="&#xe929;" d="M486.101 884.011c-131.669-9.813-246.869-100.267-288-226.176-8.619-26.411-13.397-51.456-15.403-80.683-2.176-31.616 0.171-41.984 11.093-49.152 10.027-6.571 30.549-6.272 39.808 0.64 8.661 6.485 10.539 12.16 12.203 37.419 2.261 34.005 5.589 51.157 15.275 78.379 13.653 38.4 34.389 70.613 64.299 100.011 22.869 22.528 40.704 35.285 67.84 48.725 65.451 32.341 139.947 36.821 208.384 12.501 92.629-32.981 159.104-114.133 174.208-212.608 3.029-19.712 3.029-57.088 0-76.8-8.832-57.771-33.451-107.051-73.984-148.224-28.928-29.397-62.336-50.901-99.925-64.256-27.989-9.941-45.483-13.312-78.976-15.147-26.837-1.493-32.725-3.584-39.083-14.165-3.328-5.547-3.413-8.704-3.413-145.621 0-136.875 0.085-140.075 3.413-145.749 6.869-11.648 20.395-16.896 36.053-13.952 9.344 1.749 15.616 6.059 20.267 13.952 3.328 5.632 3.413 9.344 3.925 123.52 0.341 89.813 0.981 118.016 2.56 118.997 1.109 0.725 4.352 1.323 7.168 1.365 2.816 0 14.123 1.877 25.088 4.181 85.419 17.749 159.573 67.883 208.683 141.013 5.333 7.893 14.592 24.363 20.608 36.565 73.429 148.949 24.832 329.045-113.707 421.461-59.989 40.021-134.656 59.307-208.384 53.803z" />
<glyph unicode="&#xe92a;" d="M374.912 158.806c-14.592-2.901-22.144-13.397-22.144-30.805 0-19.712 8.832-29.568 28.288-31.531 5.845-0.64 68.992-0.853 140.331-0.597 126.123 0.555 129.877 0.64 135.509 3.968 7.893 4.651 12.203 10.923 13.952 20.267 2.944 15.659-2.304 29.184-13.952 36.053-5.675 3.328-9.131 3.413-140.629 3.669-74.155 0.128-137.771-0.299-141.355-1.024z" />
<glyph unicode="&#xe92b;" d="M191.915 884.011c-64-5.376-107.947-36.053-127.189-88.789-9.813-26.837-10.88-38.101-10.88-112.555 0-74.539 1.067-85.717 10.965-112.768 13.824-37.888 42.965-66.432 80.981-79.317l14.635-4.992v-190.293c0.043-116.907 0.683-196.267 1.749-205.696 8.107-72.149 42.923-107.563 116.864-118.827 22.613-3.456 443.307-3.456 465.92 0 73.941 11.264 108.757 46.677 116.864 118.827 1.067 9.429 1.707 88.789 1.749 205.696v190.293l14.635 4.992c47.701 16.171 78.805 54.272 89.003 108.971 4.352 23.125 4.352 143.104 0 166.229-10.027 53.888-39.851 91.093-86.613 108.16-31.232 11.392-8.832 10.709-357.504 11.051-173.653 0.213-322.688-0.256-331.179-0.981zM843.648 818.39c33.237-7.040 53.077-26.795 60.032-59.776 3.627-17.237 3.627-134.656 0-151.893-6.955-32.981-26.795-52.736-60.032-59.776-17.493-3.712-645.803-3.712-663.296 0-33.237 7.040-53.077 26.795-60.032 59.776-3.584 17.109-3.627 134.656-0.043 151.595 6.955 32.853 26.709 52.949 58.923 59.904 16.853 3.669 647.253 3.797 664.448 0.171zM800.043 286.294l-0.555-193.28-3.84-13.653c-7.339-26.155-18.432-36.907-44.544-43.051-12.117-2.816-28.032-3.029-239.957-3.029-215.168 0-227.627 0.171-239.275 3.157-25.6 6.571-36.309 17.109-43.52 42.923l-3.84 13.653-0.555 193.28-0.512 193.28h577.109l-0.512-193.28z" />
<glyph unicode="&#xe92c;" d="M424.661 372.182c-9.131-1.835-14.933-6.315-18.56-14.336-7.168-15.787-2.176-37.419 10.325-44.629 5.803-3.328 8.747-3.456 95.573-3.456s89.771 0.128 95.573 3.456c3.541 2.048 7.552 6.528 9.813 11.008 7.936 15.659 3.115 37.76-9.813 45.227-5.76 3.328-9.045 3.456-91.307 3.755-46.933 0.128-88.149-0.299-91.605-1.024z" />
<glyph unicode="&#xe92d;" d="M281.6 883.84c-39.723-4.523-84.565-26.624-114.176-56.277-31.317-31.317-52.096-74.965-56.533-118.869-1.28-12.757-1.664-114.347-1.28-332.373 0.555-297.6 0.768-314.667 3.712-325.973 11.435-43.819 38.869-72.149 77.824-80.384 16.299-3.456 35.243-2.219 55.339 3.584 18.901 5.504 14.549 3.243 134.059 69.589 55.808 31.019 105.643 58.283 110.677 60.587 8.064 3.712 10.923 4.096 23.936 3.456l14.763-0.725 113.664-63.189c132.352-73.515 134.443-74.453 167.936-74.709 24.704-0.171 38.741 3.541 55.253 14.635 20.437 13.739 33.707 32.597 42.368 60.331l4.779 15.36 0.512 320.853c0.341 229.504-0.043 324.736-1.408 334.507-3.2 22.955-9.131 41.6-20.267 63.531-29.312 57.856-88.448 99.029-152.619 106.155-19.883 2.219-439.125 2.133-458.539-0.085zM755.2 816c38.272-12.885 66.645-37.76 82.731-72.363 12.843-27.733 11.989-2.005 11.989-355.712-0.043-343.68 0.384-327.381-9.173-341.803-9.813-14.848-31.957-17.835-54.315-7.339-6.016 2.773-57.728 31.061-114.944 62.805-57.216 31.701-107.904 59.477-112.64 61.653-13.995 6.4-33.408 9.685-51.925 8.704-30.037-1.579-30.165-1.621-143.957-64.896-57.429-31.915-111.488-61.483-120.192-65.707-36.565-17.792-60.288-8.533-66.901 26.112-1.451 7.467-1.835 94.848-1.451 328.491l0.512 318.293 4.053 11.947c16.597 49.195 56.448 84.864 103.936 92.971 4.437 0.768 109.824 1.28 234.197 1.152l226.133-0.256 11.947-4.053z" />
<glyph unicode="&#xe92e;" d="M378.581 581.931c-11.264-5.973-19.456-28.501-15.104-41.685 3.029-9.131 12.885-15.403 34.901-22.229 41.045-12.757 69.589-17.024 113.621-17.024s72.747 4.309 113.493 16.981c21.632 6.784 29.867 11.733 34.091 20.608 6.059 12.843-2.048 37.035-14.549 43.435-9.045 4.608-13.525 4.309-35.925-2.56-67.413-20.693-126.805-20.693-194.219 0-22.059 6.741-27.477 7.125-36.309 2.475z" />
<glyph unicode="&#xe92f;" d="M344.747 883.968c-173.739-9.088-263.893-85.931-285.739-243.584-4.821-34.645-6.016-77.867-6.016-213.717 0-192.171 2.56-224.981 22.101-283.733 32.939-98.688 104.363-152.576 224.725-169.472 32.384-4.523 80-5.845 212.181-5.845s179.797 1.323 212.181 5.845c105.387 14.805 171.648 56.917 210.091 133.632 20.565 40.96 31.616 90.496 35.115 157.141 2.176 41.344 2.176 283.52 0 324.864-2.688 50.987-8.491 85.419-20.395 121.045-26.027 77.867-75.648 127.531-153.259 153.429-36.779 12.245-69.419 17.749-121.344 20.48-36.437 1.92-292.437 1.835-329.643-0.085zM716.8 816.896c118.869-19.712 166.997-68.267 185.515-187.136 2.816-17.963 3.072-35.157 3.072-203.093s-0.256-185.131-3.072-203.093c-18.603-119.381-67.84-168.619-187.221-187.221-17.963-2.816-35.157-3.072-203.093-3.072s-185.131 0.256-203.093 3.072c-119.040 18.56-168.832 68.139-187.136 186.368-2.944 18.987-3.157 33.749-3.157 203.947 0 202.795-0.171 198.955 11.264 243.712 21.888 85.589 71.595 128.597 167.083 144.555 31.147 5.248 46.421 5.589 223.573 5.248 160.555-0.299 180.139-0.597 196.267-3.285z" />
<glyph unicode="&#xe930;" d="M316.587 722.56c-33.621-7.083-64.981-31.659-80.299-62.933-12.373-25.301-11.691-14.208-12.288-196.48l-0.597-164.053-11.691-0.811c-21.035-1.493-29.611-10.795-29.611-32 0-15.787 5.077-24.619 16.725-29.056 3.627-1.408 30.165-1.92 91.605-1.835l86.485 0.171 1.152-5.333c2.176-9.941 10.709-28.544 18.048-39.381 19.541-28.843 46.848-48.768 79.531-58.069 19.029-5.376 53.675-5.376 72.704 0 43.819 12.459 80.128 46.336 94.251 87.893l5.035 14.848 86.229-0.128c61.227-0.085 87.68 0.427 91.307 1.835 11.648 4.437 16.725 13.269 16.725 29.056 0 21.205-8.576 30.507-29.611 32l-11.691 0.811-0.597 164.053c-0.512 149.333-0.811 164.992-3.499 174.293-12.501 43.435-47.659 76.587-90.283 85.248-19.157 3.84-371.157 3.755-389.632-0.128zM703.403 656.811c11.179-5.248 21.845-15.275 27.349-25.685 3.413-6.443 3.968-10.368 4.523-31.915 0.597-23.339 0.469-24.491-2.517-23.211-1.749 0.725-9.301 3.371-16.811 5.803l-13.653 4.437h-380.587l-13.653-4.437c-7.509-2.432-15.061-5.077-16.811-5.803-2.987-1.28-3.115-0.128-2.517 23.211 0.555 21.547 1.109 25.472 4.523 31.915 7.893 14.976 23.509 26.624 39.424 29.355 4.309 0.768 87.296 1.237 184.448 1.109l176.64-0.256 9.643-4.523zM702.037 518.784c12.373-4.651 25.429-17.707 30.080-30.080 2.944-7.893 3.456-13.312 3.456-36.565v-27.264l-5.205 2.688c-2.901 1.493-11.051 4.181-18.219 6.016-12.459 3.2-20.352 3.328-200.149 3.328s-187.691-0.128-200.149-3.328c-7.168-1.835-15.317-4.523-18.219-6.016l-5.205-2.688v27.264c0 33.365 2.219 41.131 15.616 54.485 16.64 16.64 0.256 15.445 207.445 15.531 178.091 0.085 181.461 0.043 190.549-3.371zM703.531 368.342c21.717-10.197 32.043-27.733 32.043-54.4v-15.275h-61.013c-39.040 0-63.445-0.683-67.755-1.877-10.24-2.859-17.493-11.051-18.731-21.248-4.48-36.011-7.936-45.013-23.424-60.885-29.099-29.781-76.203-29.781-105.301 0-15.488 15.872-18.944 24.875-23.424 60.885-1.237 10.197-8.491 18.389-18.731 21.248-4.309 1.195-28.715 1.877-67.755 1.877h-61.013v15.275c0 11.307 0.939 17.792 3.499 24.704 6.187 16.512 23.083 30.379 40.747 33.408 4.309 0.768 87.296 1.237 184.448 1.109l176.64-0.256 9.771-4.565z" />
<glyph unicode="&#xe931;" d="M287.232 883.883c-72.747-6.485-138.325-56.491-164.181-125.269-7.424-19.755-10.112-31.829-12.075-53.888-2.304-26.112-2.304-610.859 0-632.832 3.584-34.005 12.587-55.339 31.531-74.624 30.976-31.573 75.733-37.504 122.88-16.256 7.509 3.371 60.501 32.171 117.76 64s106.752 58.965 109.952 60.331c8.875 3.755 30.293 3.328 39.595-0.768 4.181-1.877 53.291-28.757 109.099-59.733 55.808-31.019 105.685-58.496 110.848-61.099 24.747-12.459 52.437-17.92 74.283-14.677 34.389 5.12 59.477 23.936 74.283 55.68 13.653 29.227 12.544-0.597 13.184 352.427 0.384 225.877 0 319.701-1.365 331.947-6.571 58.24-37.248 109.312-84.949 141.525-30.763 20.736-57.131 30.080-94.336 33.365-23.424 2.048-423.125 1.963-446.507-0.128zM758.613 815.403c20.651-7.040 33.963-15.659 52.053-33.749 25.088-25.088 35.669-47.019 39.339-81.664 1.152-10.837 1.579-121.301 1.28-323.669-0.512-286.336-0.725-307.797-3.499-315.904-8.747-25.6-28.075-34.432-54.699-24.917-5.419 1.963-59.861 31.317-120.917 65.237-61.099 33.963-115.2 63.147-120.32 64.896-20.736 7.125-49.621 8.064-71.723 2.304-12.544-3.243-18.389-6.315-136.363-71.851-57.344-31.829-108.629-59.264-113.963-60.928-26.069-8.192-45.184 0.768-52.437 24.576-3.285 10.88-3.328 16.853-2.901 333.653l0.469 322.56 5.333 14.933c7.083 19.84 14.251 31.403 29.397 47.573 14.037 15.019 32.683 28.331 47.531 33.92 22.656 8.576 14.976 8.32 259.072 7.979l228.693-0.299 13.653-4.651z" />
<glyph unicode="&#xe932;" d="M495.061 616.619c-7.637-4.011-12.117-10.325-13.909-19.541-0.768-4.096-1.451-24.149-1.493-44.544l-0.085-37.12h-42.752c-39.125 0-43.264-0.299-49.28-3.371-9.984-5.077-14.464-15.573-13.355-31.061 0.939-13.397 3.968-18.901 13.397-24.448 5.333-3.115 9.429-3.456 48.768-3.925l42.923-0.555 0.597-43.819c0.64-49.408 1.493-53.248 13.099-60.459 5.035-3.157 8.704-3.883 19.029-3.883s13.995 0.725 19.029 3.883c11.605 7.211 12.459 11.051 13.099 60.459l0.597 43.819 42.923 0.555c39.339 0.469 43.435 0.811 48.768 3.925 9.429 5.547 12.459 11.051 13.397 24.448 1.109 15.488-3.371 25.984-13.355 31.061-6.016 3.072-10.155 3.371-49.152 3.371h-42.581l-0.555 42.24c-0.555 38.571-0.896 42.752-4.011 48.043-5.931 10.069-11.435 12.885-26.155 13.483-10.069 0.384-14.464-0.213-18.944-2.56z" />
<glyph unicode="&#xe933;" d="M315.733 883.968c-80.555-5.163-140.715-35.584-177.621-89.771-24.917-36.651-37.291-76.629-40.832-131.755-2.219-35.243-2.219-436.309 0-471.552 3.541-55.040 16-95.275 41.003-131.968 25.685-37.717 64.085-64.683 111.787-78.507 40.875-11.861 59.648-12.757 261.931-12.757 167.253 0 204.416 0.896 232.149 5.76 96.512 16.939 158.080 77.227 177.408 173.568 6.016 30.080 6.869 63.701 6.869 279.68 0 216.491-0.811 249.472-6.955 280.149-10.965 55.083-37.632 101.163-74.752 129.195-40.533 30.635-80 43.989-141.867 48.043-28.629 1.877-359.851 1.835-389.12-0.085zM742.613 815.446c33.792-8.363 56.064-20.053 75.733-39.765 19.968-19.968 31.616-42.325 39.808-76.587l4.565-18.987v-506.88l-4.565-18.987c-8.192-34.261-19.84-56.619-39.808-76.587s-42.325-31.616-76.587-39.808l-18.987-4.565h-421.547l-18.987 4.565c-64.981 15.573-100.224 50.56-116.352 115.541l-4.48 18.133-0.597 244.053c-0.384 162.347 0.043 249.259 1.195 259.541 9.685 84.096 57.301 132.992 140.075 143.957 6.101 0.811 103.637 1.323 216.747 1.152l205.653-0.299 18.133-4.48z" />
<glyph unicode="&#xe934;" d="M353.92 884.224c-9.899-1.664-15.787-6.101-19.584-14.72-3.2-7.168-3.285-12.928-2.859-187.136l0.469-179.755 3.925-7.339c12.501-23.381 36.437-34.688 60.459-28.544 5.803 1.493 12.843 4.139 15.573 5.888 2.773 1.749 26.197 22.656 52.011 46.464s47.445 43.264 48.085 43.264c0.64 0 22.357-19.584 48.256-43.52 53.376-49.28 59.307-53.376 77.867-53.461 21.717-0.128 38.613 9.557 48.853 28.117l5.077 9.131 0.469 180.053 0.427 180.053-3.84 7.637c-2.304 4.565-6.315 9.045-9.856 11.093-5.888 3.413-8.704 3.456-162.133 3.712-85.888 0.128-159.317-0.299-163.2-0.939zM629.76 681.6c0-129.963-0.171-139.136-2.859-136.96-1.579 1.28-20.949 19.072-43.093 39.509-46.763 43.179-51.499 46.251-71.808 46.251-20.181 0-25.131-3.157-70.997-45.397-21.675-19.968-41.045-37.76-43.093-39.552l-3.669-3.243v278.699h235.52v-139.307zM555.819 372.139c-15.36-3.072-22.059-13.355-21.291-32.811 0.597-14.72 3.413-20.224 13.483-26.155 5.632-3.328 8.875-3.413 108.203-3.413 99.669 0 102.571 0.085 108.373 3.456 3.541 2.048 7.552 6.528 9.813 11.008 7.936 15.659 3.115 37.76-9.813 45.227-5.803 3.371-8.96 3.456-104.107 3.712-53.973 0.171-101.077-0.299-104.661-1.024zM374.912 201.472c-14.592-2.901-22.144-13.397-22.144-30.805 0-19.712 8.832-29.568 28.288-31.531 5.845-0.597 93.184-0.853 194.091-0.555 180.565 0.512 183.552 0.555 189.44 3.968 18.091 10.453 18.091 45.781 0 56.235-5.888 3.413-8.619 3.456-194.56 3.712-103.723 0.128-191.531-0.341-195.115-1.024z" />
<glyph unicode="&#xe935;" d="M287.232 883.883c-72.747-6.485-138.325-56.491-164.181-125.269-7.424-19.755-10.112-31.829-12.075-53.888-2.304-26.112-2.304-610.859 0-632.832 3.584-34.005 12.587-55.339 31.531-74.624 30.976-31.573 75.733-37.504 122.88-16.256 7.509 3.371 60.501 32.171 117.76 64s106.752 58.965 109.952 60.331c8.875 3.755 30.293 3.328 39.595-0.768 4.181-1.877 53.291-28.757 109.099-59.733 55.808-31.019 105.685-58.496 110.848-61.099 24.747-12.459 52.437-17.92 74.283-14.677 34.389 5.12 59.477 23.936 74.283 55.68 13.653 29.227 12.544-0.597 13.184 352.427 0.384 225.877 0 319.701-1.365 331.947-6.571 58.24-37.248 109.312-84.949 141.525-30.763 20.736-57.131 30.080-94.336 33.365-23.424 2.048-423.125 1.963-446.507-0.128zM758.613 815.403c20.651-7.040 33.963-15.659 52.053-33.749 25.088-25.088 35.669-47.019 39.339-81.664 1.152-10.837 1.579-121.301 1.28-323.669-0.512-286.336-0.725-307.797-3.499-315.904-8.747-25.6-28.075-34.432-54.699-24.917-5.419 1.963-59.861 31.317-120.917 65.237-61.099 33.963-115.2 63.147-120.32 64.896-20.736 7.125-49.621 8.064-71.723 2.304-12.544-3.243-18.389-6.315-136.363-71.851-57.344-31.829-108.629-59.264-113.963-60.928-26.069-8.192-45.184 0.768-52.437 24.576-3.285 10.88-3.328 16.853-2.901 333.653l0.469 322.56 5.333 14.933c7.083 19.84 14.251 31.403 29.397 47.573 14.037 15.019 32.683 28.331 47.531 33.92 22.656 8.576 14.976 8.32 259.072 7.979l228.693-0.299 13.653-4.651z" />
<glyph unicode="&#xe936;" d="M386.859 511.83c-9.557-5.035-13.781-15.403-12.672-30.976 0.939-13.269 4.011-18.773 13.397-24.32 5.632-3.328 8.875-3.413 124.416-3.413s118.784 0.085 124.416 3.413c9.387 5.547 12.459 11.051 13.397 24.32 1.152 15.872-3.115 25.984-13.013 31.019-6.784 3.499-9.003 3.541-125.141 3.456-115.371-0.043-118.443-0.171-124.8-3.499z" />
<glyph unicode="&#xe937;" d="M930.176 885.504c-4.267-1.237-14.763-10.496-37.077-32.597l-31.104-30.848-9.045 8.747c-25.899 25.131-60.245 42.837-99.456 51.2-10.155 2.176-44.288 2.688-225.28 3.285-216.96 0.683-245.291 0.085-267.691-5.632-45.269-11.563-83.627-36.864-110.592-72.96-23.808-31.915-35.456-62.379-38.955-101.973-2.048-23.040-2.261-614.827-0.256-625.365l1.323-6.827-28.544-29.056c-23.595-23.979-28.885-30.293-30.464-36.267-2.944-10.795 0.043-19.499 10.027-29.483s18.645-12.928 29.525-10.112c6.571 1.707 48.768 43.392 439.552 434.005 237.739 237.653 433.92 434.731 435.925 437.931 5.547 8.875 5.035 20.395-1.365 29.525-9.771 13.867-23.808 20.181-36.523 16.427zM755.413 816.427c11.691-4.053 28.715-12.373 37.76-18.517 6.741-4.565 22.613-19.413 22.613-21.12 0-0.597-144.384-145.493-320.853-321.963l-320.896-320.853 0.469 290.987 0.427 290.987 5.333 14.933c7.083 19.84 14.251 31.403 29.397 47.573 14.037 15.019 32.683 28.331 47.531 33.92 22.656 8.576 14.933 8.32 259.072 7.936 227.371-0.299 228.736-0.341 239.147-3.883z" />
<glyph unicode="&#xe938;" d="M870.272 597.504c-7.68-2.475-13.141-6.997-16.384-13.483-2.987-6.016-3.157-18.261-3.968-259.755-0.853-252.928-0.853-253.44-4.437-262.187-5.163-12.544-11.349-19.883-21.333-25.301-7.979-4.352-9.899-4.693-22.613-4.011-10.411 0.597-16.896 2.048-25.856 5.888-6.571 2.816-73.771 43.819-149.333 91.093-75.563 47.317-140.8 87.765-144.939 89.899-15.872 8.235-30.421 2.901-39.979-14.635-8.235-15.147-6.016-28.971 6.059-38.016 14.592-10.965 284.672-178.261 297.259-184.149 19.712-9.259 40.576-13.995 60.8-13.867 30.208 0.256 51.243 8.789 71.68 29.141 22.187 22.101 32.597 46.72 35.883 85.035 1.237 14.848 1.707 97.024 1.323 258.176-0.469 226.261-0.64 236.629-3.669 242.731-4.437 8.96-12.672 13.568-25.515 14.293-5.845 0.341-12.587-0.043-14.976-0.853z" />
<glyph unicode="&#xe939;" d="M287.232 883.883c-72.747-6.485-138.325-56.491-164.181-125.269-7.424-19.755-10.112-31.829-12.075-53.888-2.304-26.112-2.304-610.859 0-632.832 3.584-34.005 12.587-55.339 31.531-74.624 30.976-31.573 75.733-37.504 122.88-16.256 7.509 3.371 60.501 32.171 117.76 64s106.752 58.965 109.952 60.331c8.875 3.755 30.293 3.328 39.595-0.768 4.181-1.877 53.291-28.757 109.099-59.733 55.808-31.019 105.685-58.496 110.848-61.099 24.747-12.459 52.437-17.92 74.283-14.677 34.389 5.12 59.477 23.936 74.283 55.68 13.653 29.227 12.544-0.597 13.184 352.427 0.384 225.877 0 319.701-1.365 331.947-6.571 58.24-37.248 109.312-84.949 141.525-30.763 20.736-57.131 30.080-94.336 33.365-23.424 2.048-423.125 1.963-446.507-0.128zM758.613 815.403c20.651-7.040 33.963-15.659 52.053-33.749 25.088-25.088 35.669-47.019 39.339-81.664 1.152-10.837 1.579-121.301 1.28-323.669-0.512-286.336-0.725-307.797-3.499-315.904-8.747-25.6-28.075-34.432-54.699-24.917-5.419 1.963-59.861 31.317-120.917 65.237-61.099 33.963-115.2 63.147-120.32 64.896-20.736 7.125-49.621 8.064-71.723 2.304-12.544-3.243-18.389-6.315-136.363-71.851-57.344-31.829-108.629-59.264-113.963-60.928-26.069-8.192-45.184 0.768-52.437 24.576-3.285 10.88-3.328 16.853-2.901 333.653l0.469 322.56 5.333 14.933c7.083 19.84 14.251 31.403 29.397 47.573 14.037 15.019 32.683 28.331 47.531 33.92 22.656 8.576 14.976 8.32 259.072 7.979l228.693-0.299 13.653-4.651z" />
<glyph unicode="&#xe93a;" d="M632.277 606.678c-2.816-1.408-39.637-37.077-81.835-79.275l-76.715-76.715-23.979 23.552c-27.136 26.709-34.901 31.317-46.677 27.819-8.32-2.517-20.011-12.544-24.235-20.907-4.267-8.277-4.267-15.36-0.085-23.424 4.181-8.107 77.909-81.451 84.309-83.84 8.619-3.285 17.109-2.176 25.173 3.2 4.139 2.773 47.573 45.184 96.512 94.293 94.507 94.805 94.421 94.72 92.203 108.459-2.261 13.909-19.456 29.483-32.555 29.397-3.84 0-9.259-1.195-12.117-2.56z" />
<glyph unicode="&#xe93b;" d="M482.987 884.011c-182.571-10.411-344.235-133.461-404.352-307.883-28.288-81.963-32.469-173.355-11.904-258.261 40.149-165.461 171.008-296.32 336.469-336.469 70.656-17.109 146.944-17.109 217.6 0 165.461 40.149 296.32 171.008 336.469 336.469 17.109 70.656 17.109 146.944 0 217.6-43.136 177.835-189.909 313.813-370.944 343.552-17.408 2.859-71.168 7.211-79.445 6.443-1.408-0.128-12.16-0.768-23.893-1.451zM560.896 818.262c45.013-5.888 84.437-17.707 124.331-37.291 120.192-59.008 200.875-171.776 218.368-305.408 5.248-39.765 2.816-92.672-6.144-134.144-12.331-57.387-43.989-121.899-81.621-166.485-37.291-44.16-80.256-77.909-130.603-102.571-55.424-27.136-110.848-39.936-173.227-39.936s-117.931 12.8-173.227 39.936c-120.192 59.008-200.875 171.776-218.368 305.408-5.248 39.765-2.816 92.672 6.144 134.144 9.003 41.899 31.445 95.019 55.552 131.499 63.232 95.701 164.821 159.232 279.552 174.805 23.893 3.285 74.624 3.285 99.243 0.043z" />
<glyph unicode="&#xe93c;" d="M573.44 675.072c-5.077-2.645-9.045-6.4-11.648-11.008l-3.968-7.040 0.213-229.931c0.171-228.992 0.171-230.016 3.712-237.269 4.779-9.899 13.013-14.037 27.904-14.037 15.019 0 23.808 4.395 28.245 14.165 3.115 6.912 3.243 14.037 3.285 193.109l0.043 185.899 41.387-41.045c43.819-43.435 47.872-46.379 60.587-44.331 13.568 2.219 29.44 19.456 29.44 32 0 3.541-0.811 8.576-1.792 11.221-1.024 2.645-31.275 34.389-67.243 70.528s-66.261 67.456-67.371 69.547c-1.067 2.133-5.76 5.76-10.368 8.107-10.88 5.504-21.973 5.547-32.427 0.085zM415.872 673.963c-4.437-2.347-7.552-5.76-9.771-10.624-3.115-6.869-3.243-14.037-3.285-193.067l-0.043-185.899-41.387 41.045c-43.819 43.435-47.872 46.379-60.587 44.331-13.568-2.219-29.44-19.456-29.44-32 0-3.541 0.811-8.576 1.792-11.221s31.232-34.389 67.243-70.528c35.968-36.139 66.304-67.456 67.371-69.547 2.901-5.675 17.28-12.373 26.581-12.373 11.221 0 22.912 6.4 27.861 15.189l3.968 7.040-0.213 229.931c-0.171 228.992-0.171 230.016-3.712 237.269-4.821 10.027-13.013 14.080-28.245 13.952-8.235-0.043-13.525-1.067-18.133-3.499z" />
<glyph unicode="&#xe93d;" d="M482.987 884.011c-182.571-10.411-344.235-133.461-404.352-307.883-28.288-81.963-32.469-173.355-11.904-258.261 40.149-165.461 171.008-296.32 336.469-336.469 70.656-17.109 146.944-17.109 217.6 0 165.461 40.149 296.32 171.008 336.469 336.469 17.109 70.656 17.109 146.944 0 217.6-43.136 177.835-189.909 313.813-370.944 343.552-17.408 2.859-71.168 7.211-79.445 6.443-1.408-0.128-12.16-0.768-23.893-1.451zM560.896 818.262c45.013-5.888 84.437-17.707 124.331-37.291 120.192-59.008 200.875-171.776 218.368-305.408 5.248-39.765 2.816-92.672-6.144-134.144-12.331-57.387-43.989-121.899-81.621-166.485-37.291-44.16-80.256-77.909-130.603-102.571-55.424-27.136-110.848-39.936-173.227-39.936s-117.931 12.8-173.227 39.936c-120.192 59.008-200.875 171.776-218.368 305.408-5.248 39.765-2.816 92.672 6.144 134.144 9.003 41.899 31.445 95.019 55.552 131.499 63.232 95.701 164.821 159.232 279.552 174.805 23.893 3.285 74.624 3.285 99.243 0.043z" />
<glyph unicode="&#xe93e;" d="M410.453 664.662c-2.816-1.451-34.304-31.701-69.973-67.2-35.669-35.541-66.603-65.493-68.693-66.56-5.504-2.816-12.672-17.835-12.672-26.581 0-10.965 7.253-23.851 15.829-28.245 6.997-3.541 7.083-3.584 236.8-3.371l229.803 0.171 7.467 3.584c9.472 4.608 13.781 13.312 13.781 27.861 0 14.592-4.309 23.253-13.909 27.904l-7.552 3.669h-371.669l40.149 40.533c24.576 24.832 41.344 43.093 43.179 47.189 5.845 12.672-0.597 28.544-15.744 38.571-8.832 5.845-18.475 6.741-26.795 2.475zM501.76 380.587c-208.939-0.811-223.061-1.024-228.267-3.883-8.021-4.395-12.373-14.080-12.373-27.691 0-15.019 4.395-23.808 14.165-28.245 6.912-3.115 14.037-3.243 193.109-3.285l185.899-0.043-41.045-41.387c-43.435-43.819-46.379-47.872-44.331-60.587 2.219-13.568 19.456-29.44 32-29.44 3.541 0 8.576 0.811 11.221 1.835 2.645 0.981 35.243 32.085 72.405 69.12 37.12 36.992 68.48 67.285 69.589 67.285 3.2 0 10.411 17.152 10.411 24.747 0 3.755-1.835 10.752-4.053 15.531-3.413 7.296-5.504 9.429-13.099 13.227-6.187 3.072-11.307 4.395-16 4.096-3.797-0.213-107.136-0.768-229.632-1.28z" />
<glyph unicode="&#xe93f;" d="M344.747 883.968c-173.739-9.088-263.893-85.931-285.739-243.584-4.821-34.645-6.016-77.867-6.016-213.717 0-192.171 2.56-224.981 22.101-283.733 32.939-98.688 104.363-152.576 224.725-169.472 32.384-4.523 80-5.845 212.181-5.845s179.797 1.323 212.181 5.845c105.387 14.805 171.648 56.917 210.091 133.632 20.565 40.96 31.616 90.496 35.115 157.141 2.176 41.344 2.176 283.52 0 324.864-2.688 50.987-8.491 85.419-20.395 121.045-26.027 77.867-75.648 127.531-153.259 153.429-36.779 12.245-69.419 17.749-121.344 20.48-36.437 1.92-292.437 1.835-329.643-0.085zM716.8 816.896c118.869-19.712 166.997-68.267 185.515-187.136 2.816-17.963 3.072-35.157 3.072-203.093s-0.256-185.131-3.072-203.093c-18.603-119.381-67.84-168.619-187.221-187.221-17.963-2.816-35.157-3.072-203.093-3.072s-185.131 0.256-203.093 3.072c-119.040 18.56-168.832 68.139-187.136 186.368-2.944 18.987-3.157 33.749-3.157 203.947 0 202.795-0.171 198.955 11.264 243.712 21.888 85.589 71.595 128.597 167.083 144.555 31.147 5.248 46.421 5.589 223.573 5.248 160.555-0.299 180.139-0.597 196.267-3.285z" />
<glyph unicode="&#xe940;" d="M410.453 664.662c-2.816-1.451-34.304-31.701-69.973-67.2-35.669-35.541-66.603-65.493-68.693-66.56-5.504-2.816-12.672-17.835-12.672-26.581 0-10.965 7.253-23.851 15.829-28.245 6.997-3.541 7.083-3.584 236.8-3.371l229.803 0.171 7.467 3.584c9.472 4.608 13.781 13.312 13.781 27.861 0 14.592-4.309 23.253-13.909 27.904l-7.552 3.669h-371.669l40.149 40.533c24.576 24.832 41.344 43.093 43.179 47.189 5.845 12.672-0.597 28.544-15.744 38.571-8.832 5.845-18.475 6.741-26.795 2.475zM501.76 380.587c-208.939-0.811-223.061-1.024-228.267-3.883-8.021-4.395-12.373-14.080-12.373-27.691 0-15.019 4.395-23.808 14.165-28.245 6.912-3.115 14.037-3.243 193.109-3.285l185.899-0.043-41.045-41.387c-43.435-43.819-46.379-47.872-44.331-60.587 2.219-13.568 19.456-29.44 32-29.44 3.541 0 8.576 0.811 11.221 1.835 2.645 0.981 35.243 32.085 72.405 69.12 37.12 36.992 68.48 67.285 69.589 67.285 3.2 0 10.411 17.152 10.411 24.747 0 3.755-1.835 10.752-4.053 15.531-3.413 7.296-5.504 9.429-13.099 13.227-6.187 3.072-11.307 4.395-16 4.096-3.797-0.213-107.136-0.768-229.632-1.28z" />
<glyph unicode="&#xe941;" d="M344.747 883.968c-173.739-9.088-263.893-85.931-285.739-243.584-4.821-34.645-6.016-77.867-6.016-213.717 0-192.171 2.56-224.981 22.101-283.733 32.939-98.688 104.363-152.576 224.725-169.472 32.384-4.523 80-5.845 212.181-5.845s179.797 1.323 212.181 5.845c105.387 14.805 171.648 56.917 210.091 133.632 20.565 40.96 31.616 90.496 35.115 157.141 2.176 41.344 2.176 283.52 0 324.864-2.688 50.987-8.491 85.419-20.395 121.045-26.027 77.867-75.648 127.531-153.259 153.429-36.779 12.245-69.419 17.749-121.344 20.48-36.437 1.92-292.437 1.835-329.643-0.085zM716.8 816.896c118.869-19.712 166.997-68.267 185.515-187.136 2.816-17.963 3.072-35.157 3.072-203.093s-0.256-185.131-3.072-203.093c-18.603-119.381-67.84-168.619-187.221-187.221-17.963-2.816-35.157-3.072-203.093-3.072s-185.131 0.256-203.093 3.072c-119.040 18.56-168.832 68.139-187.136 186.368-2.944 18.987-3.157 33.749-3.157 203.947 0 202.795-0.171 198.955 11.264 243.712 21.888 85.589 71.595 128.597 167.083 144.555 31.147 5.248 46.421 5.589 223.573 5.248 160.555-0.299 180.139-0.597 196.267-3.285z" />
<glyph unicode="&#xe942;" d="M573.44 675.072c-5.077-2.645-9.045-6.4-11.648-11.008l-3.968-7.040 0.213-229.931c0.171-228.992 0.171-230.016 3.712-237.269 4.779-9.899 13.013-14.037 27.904-14.037 15.019 0 23.808 4.395 28.245 14.165 3.115 6.912 3.243 14.037 3.285 193.109l0.043 185.899 41.387-41.045c43.819-43.435 47.872-46.379 60.587-44.331 13.568 2.219 29.44 19.456 29.44 32 0 3.541-0.811 8.576-1.792 11.221-1.024 2.645-31.275 34.389-67.243 70.528s-66.261 67.456-67.371 69.547c-1.067 2.133-5.76 5.76-10.368 8.107-10.88 5.504-21.973 5.547-32.427 0.085zM415.872 673.963c-4.437-2.347-7.552-5.76-9.771-10.624-3.115-6.869-3.243-14.037-3.285-193.067l-0.043-185.899-41.387 41.045c-43.819 43.435-47.872 46.379-60.587 44.331-13.568-2.219-29.44-19.456-29.44-32 0-3.541 0.811-8.576 1.792-11.221 1.024-2.645 31.275-34.389 67.243-70.528s66.261-67.456 67.371-69.547c2.816-5.504 17.835-12.672 26.581-12.672 10.667 0 22.997 6.869 27.861 15.488l3.968 7.040-0.213 229.931c-0.171 228.992-0.171 230.016-3.712 237.269-4.821 10.027-13.013 14.080-28.245 13.952-8.235-0.043-13.525-1.067-18.133-3.499z" />
<glyph unicode="&#xe943;" d="M162.219 885.504c-4.309-1.237-18.901-14.549-54.613-49.792-26.795-26.453-50.219-50.773-52.011-54.059-4.224-7.723-4.224-19.584 0-27.307 1.792-3.285 25.216-27.605 52.011-54.016 53.547-52.864 55.211-54.059 70.101-50.048 9.429 2.56 22.784 15.915 25.344 25.344 3.456 12.885 0.384 18.859-20.864 40.576l-18.901 19.371 36.565-0.043c47.275-0.043 69.76-3.328 103.083-15.189 38.229-13.611 70.955-34.645 100.224-64.384 38.528-39.125 61.44-83.328 73.387-141.397 0.939-4.736 2.219-48.085 2.816-97.28 1.024-84.693 1.237-89.003 4.48-94.421 5.76-9.515 13.397-13.099 28.16-13.099s22.4 3.584 28.16 13.099c3.243 5.419 3.456 9.728 4.48 94.421 0.597 49.195 1.877 92.544 2.816 97.28 7.253 35.328 20.821 70.656 37.035 96.427 19.456 30.891 53.547 64.981 84.523 84.48 12.075 7.637 36.736 19.413 51.883 24.789 33.536 11.947 55.936 15.232 103.253 15.275l36.565 0.043-18.901-19.371c-21.248-21.717-24.32-27.691-20.864-40.576 2.56-9.429 15.915-22.784 25.344-25.344 14.891-4.011 16.555-2.816 70.101 50.048 26.795 26.411 50.219 50.731 52.011 54.016 4.224 7.723 4.224 19.584 0 27.307-1.792 3.285-25.216 27.605-52.011 54.016-53.547 52.864-55.211 54.059-70.101 50.048-9.429-2.56-22.784-15.915-25.344-25.344-3.456-12.885-0.384-18.859 20.864-40.576l18.901-19.371h-24.619c-33.365-0.043-67.499-2.688-89.643-6.955-50.645-9.771-104.32-35.029-144.896-68.181-32.981-26.923-64.256-64.981-82.347-100.224-3.499-6.784-6.741-12.373-7.211-12.373s-3.712 5.589-7.211 12.373c-23.083 44.885-63.36 89.259-108.843 119.808-20.224 13.568-55.083 30.379-79.445 38.357-37.248 12.16-74.667 17.152-128.597 17.195h-24.619l18.901 19.371c14.805 15.104 19.328 20.864 20.821 26.453 5.845 21.589-19.2 45.653-40.789 39.253z" />
<glyph unicode="&#xe944;" d="M502.912 286.806c-8.064-1.621-14.635-6.357-19.072-13.909-3.2-5.461-3.413-8.875-3.413-59.563s0.213-54.101 3.413-59.563c6.869-11.648 20.395-16.896 36.053-13.952 9.344 1.749 15.616 6.059 20.267 13.952 3.115 5.333 3.456 9.472 4.011 50.176 0.64 51.627-0.256 63.403-5.419 71.083-6.741 10.027-20.907 14.677-35.84 11.776zM502.912 116.139c-8.064-1.621-14.635-6.357-19.072-13.909-3.2-5.461-3.413-8.875-3.413-59.563s0.213-54.101 3.413-59.563c6.869-11.648 20.395-16.896 36.053-13.952 9.344 1.749 15.616 6.059 20.267 13.952 3.115 5.333 3.456 9.472 4.011 50.176 0.64 51.627-0.256 63.403-5.419 71.083-6.741 10.027-20.907 14.677-35.84 11.776z" />
<glyph unicode="&#xe945;" d="M275.627 391.424c-2.816-1.451-41.259-38.485-85.461-82.261s-82.731-81.707-85.632-84.267c-9.856-8.747-12.629-24.917-6.357-37.163 2.944-5.803 164.693-166.869 173.525-172.8 14.037-9.429 33.579-3.541 43.051 12.971 5.803 10.197 6.528 13.696 4.309 21.931-1.707 6.4-8.917 14.336-57.259 62.848-30.421 30.549-55.296 56.064-55.296 56.747s158.549 1.408 352.299 1.664l352.299 0.427 4.821 3.584c8.149 6.101 11.307 13.355 11.307 26.069 0 14.123-3.755 22.656-12.203 27.904l-6.229 3.883-702.976 0.896 54.699 54.997c45.056 45.269 55.253 56.448 57.685 62.891 3.755 10.069 1.707 18.475-6.912 28.587-10.923 12.757-24.448 16.981-35.669 11.093z" />
<glyph unicode="&#xe946;" d="M721.323 837.803c-7.509-4.992-14.677-14.635-17.237-23.211-0.597-2.048-0.256-7.040 0.853-11.093 1.707-6.4 9.003-14.421 58.453-64.085l56.533-56.704-707.029-0.896-4.821-3.584c-8.149-6.101-11.307-13.355-11.307-26.069 0-14.123 3.755-22.656 12.203-27.904l6.229-3.883 702.976-0.896-54.699-54.997c-60.16-60.501-62.507-63.616-58.795-77.483 3.627-13.483 20.523-27.904 32.597-27.904 2.901 0 7.765 1.237 10.752 2.731s41.6 38.571 85.803 82.347c44.203 43.776 82.731 81.707 85.632 84.267 9.856 8.747 12.629 24.917 6.357 37.163-3.072 6.059-166.912 169.003-174.549 173.653-9.429 5.717-19.925 5.205-29.952-1.451z" />
<glyph unicode="&#xe947;" d="M728.277 841.472c-9.472-1.877-14.549-5.077-18.773-11.904l-3.797-6.101-0.427-351.488-0.469-351.488-54.997 54.699c-60.501 60.16-63.616 62.507-77.483 58.795-13.483-3.627-27.904-20.523-27.904-32.597 0-2.901 1.237-7.765 2.731-10.752s38.571-41.6 82.347-85.803c43.776-44.203 81.749-82.773 84.395-85.76 6.443-7.253 20.523-11.477 29.696-8.875 3.541 0.981 8.021 2.773 9.899 3.925 6.571 4.053 169.429 169.387 172.16 174.805 6.827 13.44 0.171 31.829-14.592 40.277-10.496 6.059-13.952 6.741-22.229 4.523-6.4-1.707-14.421-9.003-64.085-58.453l-56.704-56.533-0.469 353.536-0.427 353.493-3.584 4.821c-6.997 9.344-20.992 13.696-35.285 10.88z" />
<glyph unicode="&#xe948;" d="M278.187 842.539c-3.285-1.195-7.125-2.901-8.533-3.797-6.187-3.925-168.832-169.429-171.307-174.336-6.827-13.44-0.171-31.829 14.592-40.277 10.496-6.059 13.952-6.741 22.229-4.523 6.4 1.707 14.336 8.917 62.848 57.259 30.549 30.421 56.064 55.296 56.747 55.296s1.408-158.549 1.664-352.299l0.427-352.299 3.584-4.821c6.101-8.149 13.355-11.307 26.069-11.307 14.123 0 22.656 3.755 27.904 12.203l3.883 6.229 0.427 351.488 0.469 351.488 54.997-54.699c60.501-60.16 63.616-62.507 77.483-58.795 13.483 3.627 27.904 20.523 27.904 32.597 0 2.901-1.237 7.765-2.731 10.752s-38.656 41.557-82.603 85.675c-43.904 44.117-80.683 81.877-81.707 83.883-2.133 4.224-13.696 10.197-22.4 11.563-3.285 0.512-8.661-0.043-11.947-1.28z" />
<glyph unicode="&#xe949;" d="M482.987 884.011c-182.571-10.411-344.235-133.461-404.352-307.883-28.288-81.963-32.469-173.355-11.904-258.261 40.149-165.461 171.008-296.32 336.469-336.469 70.656-17.109 146.944-17.109 217.6 0 165.461 40.149 296.32 171.008 336.469 336.469 17.109 70.656 17.109 146.944 0 217.6-43.136 177.835-189.909 313.813-370.944 343.552-17.408 2.859-71.168 7.211-79.445 6.443-1.408-0.128-12.16-0.768-23.893-1.451zM560.896 818.262c45.013-5.888 84.437-17.707 124.331-37.291 120.192-59.008 200.875-171.776 218.368-305.408 5.248-39.765 2.816-92.672-6.144-134.144-12.331-57.387-43.989-121.899-81.621-166.485-37.291-44.16-80.256-77.909-130.603-102.571-55.424-27.136-110.848-39.936-173.227-39.936s-117.931 12.8-173.227 39.936c-120.192 59.008-200.875 171.776-218.368 305.408-5.248 39.765-2.816 92.672 6.144 134.144 9.003 41.899 31.445 95.019 55.552 131.499 63.232 95.701 164.821 159.232 279.552 174.805 23.893 3.285 74.624 3.285 99.243 0.043z" />
<glyph unicode="&#xe94a;" d="M346.112 508.587c-9.216-6.144-16.512-16.043-17.835-24.32-2.219-13.568-1.408-14.507 79.403-95.659 41.899-42.069 80.299-79.701 85.419-83.627 8.32-6.485 10.155-7.168 18.816-7.168 8.32 0 10.624 0.811 18.048 6.272 4.651 3.456 43.136 41.088 85.504 83.627 81.749 82.091 82.475 82.987 80.256 96.555s-19.456 29.44-32 29.44c-3.541 0-8.576-0.811-11.221-1.792s-35.328-32.299-72.661-69.547l-67.84-67.712-67.84 67.712c-37.333 37.248-70.016 68.565-72.661 69.547-8.661 3.243-17.109 2.133-25.387-3.328z" />
<glyph unicode="&#xe94b;" d="M482.987 884.011c-182.571-10.411-344.235-133.461-404.352-307.883-28.288-81.963-32.469-173.355-11.904-258.261 40.149-165.461 171.008-296.32 336.469-336.469 70.656-17.109 146.944-17.109 217.6 0 165.461 40.149 296.32 171.008 336.469 336.469 17.109 70.656 17.109 146.944 0 217.6-43.136 177.835-189.909 313.813-370.944 343.552-17.408 2.859-71.168 7.211-79.445 6.443-1.408-0.128-12.16-0.768-23.893-1.451zM560.896 818.262c45.013-5.888 84.437-17.707 124.331-37.291 120.192-59.008 200.875-171.776 218.368-305.408 5.248-39.765 2.816-92.672-6.144-134.144-12.331-57.387-43.989-121.899-81.621-166.485-37.291-44.16-80.256-77.909-130.603-102.571-55.424-27.136-110.848-39.936-173.227-39.936s-117.931 12.8-173.227 39.936c-120.192 59.008-200.875 171.776-218.368 305.408-5.248 39.765-2.816 92.672 6.144 134.144 9.003 41.899 31.445 95.019 55.552 131.499 63.232 95.701 164.821 159.232 279.552 174.805 23.893 3.285 74.624 3.285 99.243 0.043z" />
<glyph unicode="&#xe94c;" d="M554.667 608.342c-6.571-2.944-152.405-147.371-164.352-162.773-6.485-8.32-7.168-10.155-7.168-18.816 0-8.32 0.811-10.624 6.272-18.048 3.456-4.651 41.088-43.136 83.627-85.504 82.091-81.749 82.987-82.475 96.555-80.256s29.44 19.456 29.44 32c0 3.541-0.811 8.576-1.792 11.221s-32.299 35.328-69.547 72.661l-67.712 67.84 67.712 67.84c37.248 37.333 68.565 70.016 69.547 72.661 3.243 8.661 2.133 17.109-3.328 25.387-10.112 15.232-26.155 21.675-39.253 15.787z" />
<glyph unicode="&#xe94d;" d="M482.987 884.011c-182.571-10.411-344.235-133.461-404.352-307.883-28.288-81.963-32.469-173.355-11.904-258.261 40.149-165.461 171.008-296.32 336.469-336.469 70.656-17.109 146.944-17.109 217.6 0 165.461 40.149 296.32 171.008 336.469 336.469 17.109 70.656 17.109 146.944 0 217.6-43.136 177.835-189.909 313.813-370.944 343.552-17.408 2.859-71.168 7.211-79.445 6.443-1.408-0.128-12.16-0.768-23.893-1.451zM560.896 818.262c45.013-5.888 84.437-17.707 124.331-37.291 120.192-59.008 200.875-171.776 218.368-305.408 5.248-39.765 2.816-92.672-6.144-134.144-12.331-57.387-43.989-121.899-81.621-166.485-37.291-44.16-80.256-77.909-130.603-102.571-55.424-27.136-110.848-39.936-173.227-39.936s-117.931 12.8-173.227 39.936c-120.192 59.008-200.875 171.776-218.368 305.408-5.248 39.765-2.816 92.672 6.144 134.144 9.003 41.899 31.445 95.019 55.552 131.499 63.232 95.701 164.821 159.232 279.552 174.805 23.893 3.285 74.624 3.285 99.243 0.043z" />
<glyph unicode="&#xe94e;" d="M450.56 609.92c-6.699-2.645-15.829-10.368-20.48-17.365-5.461-8.277-6.571-16.725-3.328-25.387 0.981-2.645 32.299-35.328 69.547-72.661l67.712-67.84-67.712-67.84c-37.248-37.333-68.565-70.016-69.547-72.661s-1.792-7.68-1.792-11.221c0-12.544 15.872-29.781 29.44-32s14.464-1.493 96.555 80.256c42.539 42.368 80.085 80.725 83.413 85.205 7.509 10.197 9.088 19.968 4.693 29.525-3.243 7.083-153.173 159.147-164.992 167.339-6.229 4.352-18.219 6.699-23.509 4.651z" />
<glyph unicode="&#xe94f;" d="M482.987 884.011c-182.571-10.411-344.235-133.461-404.352-307.883-28.288-81.963-32.469-173.355-11.904-258.261 40.149-165.461 171.008-296.32 336.469-336.469 70.656-17.109 146.944-17.109 217.6 0 165.461 40.149 296.32 171.008 336.469 336.469 17.109 70.656 17.109 146.944 0 217.6-43.136 177.835-189.909 313.813-370.944 343.552-17.408 2.859-71.168 7.211-79.445 6.443-1.408-0.128-12.16-0.768-23.893-1.451zM560.896 818.262c45.013-5.888 84.437-17.707 124.331-37.291 120.192-59.008 200.875-171.776 218.368-305.408 5.248-39.765 2.816-92.672-6.144-134.144-12.331-57.387-43.989-121.899-81.621-166.485-37.291-44.16-80.256-77.909-130.603-102.571-55.424-27.136-110.848-39.936-173.227-39.936s-117.931 12.8-173.227 39.936c-120.192 59.008-200.875 171.776-218.368 305.408-5.248 39.765-2.816 92.672 6.144 134.144 9.003 41.899 31.445 95.019 55.552 131.499 63.232 95.701 164.821 159.232 279.552 174.805 23.893 3.285 74.624 3.285 99.243 0.043z" />
<glyph unicode="&#xe950;" d="M500.053 553.558c-6.656-3.285-159.531-154.539-166.869-165.12-9.728-14.037-4.352-32.213 12.928-43.691 8.277-5.461 16.683-6.571 25.387-3.328 2.645 0.981 35.328 32.299 72.661 69.547l67.84 67.712 67.84-67.712c37.333-37.248 70.016-68.565 72.661-69.547s7.68-1.792 11.221-1.792c12.544 0 29.781 15.872 32 29.44s1.493 14.464-80.256 96.555c-42.368 42.539-80.725 80.085-85.291 83.456-10.027 7.424-20.864 9.045-30.123 4.48z" />
<glyph unicode="&#xe951;" d="M243.2 354.304c-18.645-8.107-28.16-28.629-20.395-43.989 3.371-6.656 258.731-263.211 271.232-272.469 7.424-5.461 9.685-6.272 18.048-6.272 8.661 0 10.496 0.683 18.816 7.168 13.739 10.667 267.008 265.003 270.208 271.36 7.808 15.531-1.963 36.437-20.693 44.288-7.296 3.072-13.141 2.901-20.693-0.555-3.968-1.792-50.432-46.933-126.976-123.221l-120.747-120.448-120.747 120.448c-76.544 76.288-123.008 121.429-126.976 123.221-7.424 3.413-14.080 3.541-21.077 0.469z" />
<glyph unicode="&#xe952;" d="M494.891 817.067c-4.48-2.261-8.96-6.272-11.008-9.813-3.456-5.931-3.456-7.68-3.456-376.32 0-357.376 0.128-370.56 3.157-376.704 5.035-10.069 13.141-14.123 28.416-14.123s23.381 4.053 28.416 14.123c3.029 6.144 3.157 19.328 3.157 376.704 0 368.64 0 370.389-3.456 376.32-4.736 8.235-15.915 13.653-28.117 13.653-6.485 0-11.947-1.237-17.109-3.84z" />
<glyph unicode="&#xe953;" d="M482.987 884.011c-182.571-10.411-344.235-133.461-404.352-307.883-28.288-81.963-32.469-173.355-11.904-258.261 40.149-165.461 171.008-296.32 336.469-336.469 70.656-17.109 146.944-17.109 217.6 0 165.461 40.149 296.32 171.008 336.469 336.469 17.109 70.656 17.109 146.944 0 217.6-43.136 177.835-189.909 313.813-370.944 343.552-17.408 2.859-71.168 7.211-79.445 6.443-1.408-0.128-12.16-0.768-23.893-1.451zM560.896 818.262c45.013-5.888 84.437-17.707 124.331-37.291 120.192-59.008 200.875-171.776 218.368-305.408 5.248-39.765 2.816-92.672-6.144-134.144-12.331-57.387-43.989-121.899-81.621-166.485-37.291-44.16-80.256-77.909-130.603-102.571-55.424-27.136-110.848-39.936-173.227-39.936s-117.931 12.8-173.227 39.936c-120.192 59.008-200.875 171.776-218.368 305.408-5.248 39.765-2.816 92.672 6.144 134.144 9.003 41.899 31.445 95.019 55.552 131.499 63.232 95.701 164.821 159.232 279.552 174.805 23.893 3.285 74.624 3.285 99.243 0.043z" />
<glyph unicode="&#xe954;" d="M494.891 603.734c-4.48-2.261-8.96-6.272-11.008-9.813-3.371-5.803-3.456-9.131-3.968-121.856l-0.469-115.883-38.784 38.315c-21.675 21.461-41.472 39.595-44.971 41.216-12.501 5.803-23.851 2.645-35.413-9.899-3.712-4.053-7.68-10.453-8.832-14.293-4.309-14.421-2.816-16.341 69.077-88.661 35.755-35.968 68.864-68.224 73.515-71.68 7.381-5.461 9.728-6.272 18.048-6.272 8.661 0 10.496 0.683 18.816 7.125 5.12 3.968 38.144 36.224 73.429 71.68 70.955 71.381 72.533 73.429 68.224 87.808-1.152 3.84-5.12 10.24-8.832 14.293-11.563 12.544-22.912 15.701-35.413 9.899-3.499-1.621-23.296-19.755-44.971-41.173l-38.741-38.315-0.512 115.84c-0.512 112.725-0.597 116.053-3.968 121.856-4.736 8.235-15.915 13.653-28.117 13.653-6.485 0-11.947-1.237-17.109-3.84z" />
</font>
</defs>
</svg>
